La fiesta de las salchichas (2016) Full 1080p Latino

1.384 vistas
1 estrella2 estrellas3 estrellas4 estrellas5 estrellas (3 votos, promedio: 5,00 de 5)
Cargando…

Información de La fiesta de las salchichas (2016) Full 1080p Latino

Datos de la película

  • Calidad: Full 1080p
  • Audio: Español Latino AC3 2.0 DVD - Ingles DTS 5.1 BLURAY
  • Subtitulos: Español Latino PGS - Ingles PGS
  • Resolución: 1920X1080p
  • Formato: MKV
  • Codec: H.264
  • Encoder: Dracarys
  • Mediainfo: Clic para Mostrar Datos Ver
  • Format                                   : Matroska
    Format version                           : Version 4 / Version 2
    File size                                : 3.70 GiB
    Duration                                 : 1 h 28 min
    Overall bit rate                         : 5 967 kb/s
    Movie name                               : CinemaniaHDD.com
    Encoded date                             : UTC 2018-01-12 04:54:40 / UTC 2017-12-20T23:56:02Z
    Writing application                      : mkvmerge v15.0.0 ('Duel with the Devil') 64-bit
    Writing library                          : libebml v1.3.5 + libmatroska v1.4.5 / Lavf57.7.2

    Video
    ID                                       : 1
    Format                                   : AVC
    Format/Info                              : Advanced Video Codec
    Format profile                           : High@L4.1
    Format settings                          : CABAC / 4 Ref Frames
    Format settings, CABAC                   : Yes
    Format settings, RefFrames               : 4 frames
    Codec ID                                 : V_MPEG4/ISO/AVC
    Duration                                 : 1 h 28 min
    Bit rate                                 : 4 083 kb/s
    Width                                    : 1 920 pixels
    Height                                   : 1 080 pixels
    Display aspect ratio                     : 16:9
    Frame rate mode                          : Constant
    Frame rate                               : 23.976 (24000/1001) FPS
    Color space                              : YUV
    Chroma subsampling                       : 4:2:0
    Bit depth                                : 8 bits
    Scan type                                : Progressive
    Bits/(Pixel*Frame)                       : 0.082
    Stream size                              : 2.53 GiB (68%)
    Title                                    : La fiesta de las salchichas (2016) Full 1080p Latino
    Writing library                          : x264 core 148 r2708 86b7198
    Encoding settings                        : cabac=1 / ref=4 / deblock=1:0:0 / analyse=0x3:0x133 / me=esa / subme=10 / psy=1 / psy_rd=1.00:0.00 / mixed_ref=1 / me_range=24 / chroma_me=1 / trellis=2 / 8x8dct=1 / cqm=0 / deadzone=21,11 / fast_pskip=1 / chroma_qp_offset=-2 / threads=34 / lookahead_threads=5 / sliced_threads=0 / nr=0 / decimate=1 / interlaced=0 / bluray_compat=0 / constrained_intra=0 / bframes=8 / b_pyramid=2 / b_adapt=2 / b_bias=0 / direct=3 / weightb=1 / open_gop=0 / weightp=2 / keyint=240 / keyint_min=24 / scenecut=40 / intra_refresh=0 / rc_lookahead=60 / rc=crf / mbtree=1 / crf=20.0 / qcomp=0.60 / qpmin=0 / qpmax=69 / qpstep=4 / vbv_maxrate=62500 / vbv_bufsize=78125 / crf_max=0.0 / nal_hrd=none / filler=0 / ip_ratio=1.40 / aq=1:1.00
    Language                                 : English
    Default                                  : Yes
    Forced                                   : No
    Color range                              : Limited
    Color primaries                          : BT.709
    Transfer characteristics                 : BT.709
    Matrix coefficients                      : BT.709
    Statistics Tags Issue                    : mkvmerge v15.0.0 ('Duel with the Devil') 64-bit 2018-01-12 04:54:40 / mkvmerge v15.0.0 ('Duel with the Devil') 64-bit 2018-01-12 04:54:40 / UTC 2017-12-20T23:56:02Z
    FromStats_BitRate                        : 4161431
    FromStats_Duration                       : 01:28:45.320000000
    FromStats_FrameCount                     : 127680
    FromStats_StreamSize                     : 2770119018

    Audio #1
    ID                                       : 2
    Format                                   : AC-3
    Format/Info                              : Audio Coding 3
    Format settings, Endianness              : Big
    Codec ID                                 : A_AC3
    Duration                                 : 1 h 28 min
    Bit rate mode                            : Constant
    Bit rate                                 : 256 kb/s
    Channel(s)                               : 2 channels
    Channel positions                        : Front: L R
    Sampling rate                            : 48.0 kHz
    Frame rate                               : 31.250 FPS (1536 SPF)
    Bit depth                                : 16 bits
    Compression mode                         : Lossy
    Stream size                              : 163 MiB (4%)
    Language                                 : Spanish
    Service kind                             : Complete Main
    Default                                  : Yes
    Forced                                   : No
    Statistics Tags Issue                    : mkvmerge v15.0.0 ('Duel with the Devil') 64-bit 2018-01-12 04:54:40 / mkvmerge v15.0.0 ('Duel with the Devil') 64-bit 2018-01-12 04:54:40 / UTC 2017-12-20T23:56:02Z
    FromStats_BitRate                        : 256000
    FromStats_Duration                       : 01:28:45.216000000
    FromStats_FrameCount                     : 166413
    FromStats_StreamSize                     : 170406912

    Audio #2
    ID                                       : 3
    Format                                   : DTS
    Format/Info                              : Digital Theater Systems
    Mode                                     : 16
    Format settings, Endianness              : Big
    Codec ID                                 : A_DTS
    Duration                                 : 1 h 28 min
    Bit rate mode                            : Constant
    Bit rate                                 : 1 509 kb/s
    Channel(s)                               : 6 channels
    Channel positions                        : Front: L C R, Side: L R, LFE
    Sampling rate                            : 48.0 kHz
    Frame rate                               : 93.750 FPS (512 SPF)
    Bit depth                                : 24 bits
    Compression mode                         : Lossy
    Stream size                              : 958 MiB (25%)
    Language                                 : English
    Default                                  : No
    Forced                                   : No
    Statistics Tags Issue                    : mkvmerge v15.0.0 ('Duel with the Devil') 64-bit 2018-01-12 04:54:40 / mkvmerge v15.0.0 ('Duel with the Devil') 64-bit 2018-01-12 04:54:40 / UTC 2017-12-20T23:56:02Z
    FromStats_BitRate                        : 1508999
    FromStats_Duration                       : 01:28:45.323000000
    FromStats_FrameCount                     : 499249
    FromStats_StreamSize                     : 1004488988

    Text #1
    ID                                       : 4
    Format                                   : PGS
    Muxing mode                              : zlib
    Codec ID                                 : S_HDMV/PGS
    Codec ID/Info                            : Picture based subtitle format used on BDs/HD-DVDs
    Language                                 : English
    Default                                  : No
    Forced                                   : No
    Statistics Tags Issue                    : mkvmerge v15.0.0 ('Duel with the Devil') 64-bit 2018-01-12 04:54:40 / mkvmerge v15.0.0 ('Duel with the Devil') 64-bit 2018-01-12 04:54:40 / UTC 2017-12-20T23:56:02Z
    FromStats_BitRate                        : 48349
    FromStats_Duration                       : 01:20:01.296000000
    FromStats_FrameCount                     : 2714
    FromStats_StreamSize                     : 29017591

    Text #2
    ID                                       : 5
    Format                                   : PGS
    Muxing mode                              : zlib
    Codec ID                                 : S_HDMV/PGS
    Codec ID/Info                            : Picture based subtitle format used on BDs/HD-DVDs
    Language                                 : Spanish
    Default                                  : No
    Forced                                   : No
    Statistics Tags Issue                    : mkvmerge v15.0.0 ('Duel with the Devil') 64-bit 2018-01-12 04:54:40 / mkvmerge v15.0.0 ('Duel with the Devil') 64-bit 2018-01-12 04:54:40 / UTC 2017-12-20T23:56:02Z
    FromStats_BitRate                        : 44376
    FromStats_Duration                       : 01:22:24.773000000
    FromStats_FrameCount                     : 2839
    FromStats_StreamSize                     : 27428817

    Menu
    00:00:00.000                             : :Chapter 1
    00:04:24.264                             : :Chapter 2
    00:10:19.119                             : :Chapter 3
    00:15:27.844                             : :Chapter 4
    00:19:32.171                             : :Chapter 5
    00:24:53.701                             : :Chapter 6
    00:29:32.938                             : :Chapter 7
    00:35:44.184                             : :Chapter 8
    00:41:55.263                             : :Chapter 9
    00:48:18.562                             : :Chapter 10
    00:54:45.908                             : :Chapter 11
    00:59:54.508                             : :Chapter 12
    01:03:47.073                             : :Chapter 13
    01:08:01.286                             : :Chapter 14
    01:11:55.812                             : :Chapter 15
    01:16:03.851                             : :Chapter 16

     

  • Peso: 3.70 GiB

Sinopsis

La trama sigue el drama de una salchicha (Seth Rogen) y sus amigos (Kristen Wiig, Jonah Hill, James Franco), otros productos de supermercado, cuando descubren que serán brutalmente asesinados al llegar a casa de sus compradores. Es entonces que necesitan encontrar una manera de regresar al supermercado y avisar a sus amigos de lo que realmente sucede con la comida.

Ficha técnica

Video trailer de la película

Enlaces de descarga

Rip de Bluray

Descargar La fiesta de las salchichas (2016) Full 1080p Latino




Aportes de DPeliculasHDmega la pass es:dpeliculashdmega.org Aportes de CinemaniaHD la pass es:cinemaniahdd.com

Películas relacionadas

  • Paciente Cero (2018) Full 1080p Latino

    2018
    Paciente Cero (2018) Full 1080p Latino

    3.7 1h 26m 2018

    Paciente Cero (2018) Full 1080p Latino; Mega, Google Drive. Tras una pandemia sin precedentes, la Humanidad...

    Director: Stefan Ruzowitzky

    Género: Acción

    Actores: Yumiko Hanasaka

  • El espia que me planto (2018) 1080p Latino

    2018
    El espia que me planto (2018) 1080p Latino

    5.0 1h 57m 2018

    Audrey (Mila Kunis) y Morgan (Kate McKinnon) son dos amigas que viven en Los Ángeles y que un día se...

    Director: Susanna Fogel

    Género: Acción

    Actores: Sam Heughan

  • A la deriva (2018) 1080p Latino

    2018
    A la deriva (2018) 1080p Latino

    0.0 1h 36m 2018

    Descargar A la deriva (2018) 1080p Latino; Mega google Drive. Basada en una historia real, narra cómo...

    Director: Monique Knight

    Género: Aventura

    Actores: Shailene Woodley

  • La jungla (2017) Full 1080p Latino

    2017
    La jungla (2017) Full 1080p Latino

    4.0 1h 55m 2017

    Descargar La jungla (2017) Full 1080p Latino; Mega, google Drive. Cuenta la historia real de Yossi Ghinsberg,...

    Director: Greg McLean

    Género: Aventura

    Actores: Yasmin Kassim

Comentarios 0