La Era de Hielo 2 (2006) Full 1080p Latino

690 vistas
1 estrella2 estrellas3 estrellas4 estrellas5 estrellas (Ninguna valoración todavía)
Cargando…

Información de La Era de Hielo 2 (2006) Full 1080p Latino

Datos de la película

  • Calidad: Full 1080p
  • Audio: Español Latino AC3 5.1 BLURAY - Ingles DTS 5.1 BLURAY
  • Subtitulos: Español Latino PGS
  • Resolución: 1920x1080p
  • Formato: MKV
  • Codec: H.264
  • Encoder: Dracarys
  • Mediainfo: Clic para Mostrar Datos Ver
  • Format                                   : Matroska
    Format version                           : Version 4 / Version 2
    File size                                : 4.19 GiB
    Duration                                 : 1 h 30 min
    Overall bit rate                         : 6 621 kb/s
    Movie name                               : CinemaniaHDD.com
    Encoded date                             : UTC 2018-03-22 18:32:54 / UTC 2018-03-21T01:16:42Z
    Writing application                      : mkvmerge v15.0.0 ('Duel with the Devil') 64-bit
    Writing library                          : libebml v1.3.5 + libmatroska v1.4.5 / Lavf57.7.2

    Video
    ID                                       : 1
    Format                                   : AVC
    Format/Info                              : Advanced Video Codec
    Format profile                           : High@L4.1
    Format settings                          : CABAC / 4 Ref Frames
    Format settings, CABAC                   : Yes
    Format settings, RefFrames               : 4 frames
    Codec ID                                 : V_MPEG4/ISO/AVC
    Duration                                 : 1 h 30 min
    Bit rate                                 : 4 533 kb/s
    Width                                    : 1 920 pixels
    Height                                   : 1 080 pixels
    Display aspect ratio                     : 16:9
    Frame rate mode                          : Constant
    Frame rate                               : 23.976 (24000/1001) FPS
    Color space                              : YUV
    Chroma subsampling                       : 4:2:0
    Bit depth                                : 8 bits
    Scan type                                : Progressive
    Bits/(Pixel*Frame)                       : 0.091
    Stream size                              : 2.87 GiB (68%)
    Title                                    : La Era de Hielo 2 (2006) Full 1080p Latino
    Writing library                          : x264 core 148 r2708 86b7198
    Encoding settings                        : cabac=1 / ref=4 / deblock=1:0:0 / analyse=0x3:0x133 / me=esa / subme=9 / psy=1 / psy_rd=1.00:0.00 / mixed_ref=1 / me_range=16 / chroma_me=1 / trellis=2 / 8x8dct=1 / cqm=0 / deadzone=21,11 / fast_pskip=1 / chroma_qp_offset=-2 / threads=34 / lookahead_threads=2 / sliced_threads=0 / nr=0 / decimate=1 / interlaced=0 / bluray_compat=0 / constrained_intra=0 / bframes=3 / b_pyramid=2 / b_adapt=2 / b_bias=0 / direct=3 / weightb=1 / open_gop=0 / weightp=2 / keyint=240 / keyint_min=24 / scenecut=40 / intra_refresh=0 / rc_lookahead=60 / rc=crf / mbtree=1 / crf=20.0 / qcomp=0.60 / qpmin=0 / qpmax=69 / qpstep=4 / vbv_maxrate=62500 / vbv_bufsize=78125 / crf_max=0.0 / nal_hrd=none / filler=0 / ip_ratio=1.40 / aq=1:1.00
    Language                                 : English
    Default                                  : Yes
    Forced                                   : No
    Color range                              : Limited
    Color primaries                          : BT.709
    Transfer characteristics                 : BT.709
    Matrix coefficients                      : BT.709
    Statistics Tags Issue                    : mkvmerge v15.0.0 ('Duel with the Devil') 64-bit 2018-03-22 18:32:54 / mkvmerge v15.0.0 ('Duel with the Devil') 64-bit 2018-03-22 18:32:54 / UTC 2018-03-21T01:16:42Z
    FromStats_BitRate                        : 4646948
    FromStats_Duration                       : 01:30:35.931000000
    FromStats_FrameCount                     : 130332
    FromStats_StreamSize                     : 3157561588

    Audio #1
    ID                                       : 2
    Format                                   : AC-3
    Format/Info                              : Audio Coding 3
    Format settings, Endianness              : Big
    Codec ID                                 : A_AC3
    Duration                                 : 1 h 30 min
    Bit rate mode                            : Constant
    Bit rate                                 : 448 kb/s
    Channel(s)                               : 6 channels
    Channel positions                        : Front: L C R, Side: L R, LFE
    Sampling rate                            : 48.0 kHz
    Frame rate                               : 31.250 FPS (1536 SPF)
    Bit depth                                : 16 bits
    Compression mode                         : Lossy
    Stream size                              : 290 MiB (7%)
    Language                                 : Spanish
    Service kind                             : Complete Main
    Default                                  : Yes
    Forced                                   : No
    Statistics Tags Issue                    : mkvmerge v15.0.0 ('Duel with the Devil') 64-bit 2018-03-22 18:32:54 / mkvmerge v15.0.0 ('Duel with the Devil') 64-bit 2018-03-22 18:32:54 / UTC 2018-03-21T01:16:42Z
    FromStats_BitRate                        : 448000
    FromStats_Duration                       : 01:30:36.032000000
    FromStats_FrameCount                     : 169876
    FromStats_StreamSize                     : 304417792

    Audio #2
    ID                                       : 3
    Format                                   : DTS
    Format/Info                              : Digital Theater Systems
    Mode                                     : 16
    Format settings, Endianness              : Big
    Codec ID                                 : A_DTS
    Duration                                 : 1 h 30 min
    Bit rate mode                            : Constant
    Bit rate                                 : 1 509 kb/s
    Channel(s)                               : 6 channels
    Channel positions                        : Front: L C R, Side: L R, LFE
    Sampling rate                            : 48.0 kHz
    Frame rate                               : 93.750 FPS (512 SPF)
    Bit depth                                : 24 bits
    Compression mode                         : Lossy
    Stream size                              : 978 MiB (23%)
    Language                                 : English
    Default                                  : No
    Forced                                   : No
    Statistics Tags Issue                    : mkvmerge v15.0.0 ('Duel with the Devil') 64-bit 2018-03-22 18:32:54 / mkvmerge v15.0.0 ('Duel with the Devil') 64-bit 2018-03-22 18:32:54 / UTC 2018-03-21T01:16:42Z
    FromStats_BitRate                        : 1508999
    FromStats_Duration                       : 01:30:35.979000000
    FromStats_FrameCount                     : 509623
    FromStats_StreamSize                     : 1025361476

    Text
    ID                                       : 4
    Format                                   : PGS
    Muxing mode                              : zlib
    Codec ID                                 : S_HDMV/PGS
    Codec ID/Info                            : Picture based subtitle format used on BDs/HD-DVDs
    Language                                 : Spanish
    Default                                  : No
    Forced                                   : No
    Statistics Tags Issue                    : mkvmerge v15.0.0 ('Duel with the Devil') 64-bit 2018-03-22 18:32:54 / mkvmerge v15.0.0 ('Duel with the Devil') 64-bit 2018-03-22 18:32:54 / UTC 2018-03-21T01:16:42Z
    FromStats_BitRate                        : 37488
    FromStats_Duration                       : 01:20:40.924000000
    FromStats_FrameCount                     : 1334
    FromStats_StreamSize                     : 22685169

    Menu
    00:00:00.000                             : :Chapter 1
    00:06:19.296                             : :Chapter 2
    00:07:42.671                             : :Chapter 3
    00:10:45.395                             : :Chapter 4
    00:15:23.256                             : :Chapter 5
    00:17:42.937                             : :Chapter 6
    00:19:23.162                             : :Chapter 7
    00:21:40.925                             : :Chapter 8
    00:23:14.268                             : :Chapter 9
    00:27:11.839                             : :Chapter 10
    00:30:32.247                             : :Chapter 11
    00:35:44.809                             : :Chapter 12
    00:38:48.660                             : :Chapter 13
    00:42:26.753                             : :Chapter 14
    00:45:49.705                             : :Chapter 15
    00:47:44.653                             : :Chapter 16
    00:50:17.681                             : :Chapter 17
    00:54:04.491                             : :Chapter 18
    00:58:59.244                             : :Chapter 19
    01:01:06.788                             : :Chapter 20
    01:05:11.116                             : :Chapter 21
    01:10:38.025                             : :Chapter 22
    01:20:55.476                             : :Chapter 23
    01:23:34.635                             : :Chapter 24

  • Peso: 4.19 GiB

Sinopsis

La edad de hielo está llegando a su fin y los animales están perplejos ante los cambios y la situación de su nuevo mundo. Manny quizás ya esté preparado para fundar una familia, pero nadie ha visto otro mamut desde hace un montón de tiempo; de hecho, Manny cree que probablemente sea el último de su especie. Y así es, hasta que de forma milagrosa se encuentra con Ellie, el único mamut de sexo femenino que queda sobre la faz de la Tierra. Manny, Sid y Diego se dan cuenta rápidamente de que el calentamiento del clima trae consigo un gran inconveniente: una gigantesca balsa glaciar que contiene miles de litros de agua está a punto de romperse, amenazando a todo el valle. La única oportunidad de sobrevivir se encuentra en el otro confín del valle. Así que nuestros tres héroes, junto con Ellie, Crash y Eddie, forman el más insólito grupo familiar – de cualquier “edad” – cuando se embarcan en una misión a través de un escenario siempre cambiante y cada vez más peligroso hacia su salvación.

Ficha técnica

Video trailer de la película

Enlaces de descarga

Rip de Bluray

Descargar La Era de Hielo 2 (2006) Full 1080p Latino




Aportes de DPeliculasHDmega la pass es:dpeliculashdmega.org Aportes de CinemaniaHD la pass es:cinemaniahdd.com

Películas relacionadas

  • ¡Hombre al agua! (2018) 1080p Latino

    2018
    ¡Hombre al agua! (2018) 1080p Latino

    5.0 1 h 52 min 2018

    Kate es una madre soltera, trabajadora, madre de tres hijas, contratada para limpiar un yate de lujo...

    Director: Rob Greenberg

    Género: 1080p Portada Negra

    Actores: Toby Hargrave

  • El alma de la fiesta (2018) 1080p Latino

    2018
    El alma de la fiesta (2018) 1080p Latino

    0.0 1 h 44 min 2018

    Después de haber sido abandonada por su esposo, Deanna, ama de casa, decide darle un giro a su vida...

    Director: Ben Falcone

    Género: Comedia

    Actores: Yani Simone

  • Tully (2018) 1080p Latino

    2018
    Tully (2018) 1080p Latino

    0.0 1 h 35 min 2018

    La historia de una mujer con tres hijos que, incapaz de lidiar con su bebé recién nacido, contrata...

    Director: Jason Reitman

    Género: Comedia

    Actores: Stormy Ent

  • Si solo pudiera imaginar (2018) Full 1080p Latino

    2018
    Si solo pudiera imaginar (2018) Full 1080p Latino

    4.8 1 h 50 min 2018

    La historia real de la aclamada canción "I Can Only Imagine", la canción cristiana contemporánea más...

    Director: Jon Erwin

    Género: Drama

    Actores: Trace Adkins

  • El padre del año (2018) WEB-DL 1080p Latino

    2018
    El padre del año (2018) WEB-DL 1080p Latino

    0.0 1h 34m 2018

    Dos universitarios recién graduados discuten borrachos sobre quién de sus padres ganaría una pelea....

    Director: Tyler Spindel

    Género: Comedia

    Actores: Ralph Ayala

Comentarios 0