La casa de la esperanza (2017) 1080p Latino

1.779 vistas
1 estrella2 estrellas3 estrellas4 estrellas5 estrellas (Ninguna valoración todavía)
Cargando…

Información de La casa de la esperanza (2017) 1080p Latino

Datos de la película

  • Calidad: 1080p
  • Audio: Español Latino AC3 5.1 DVD - Ingles AC3 5.1 BLURAY
  • Subtitulos: Español Latino SRT - Ingles SRT
  • Resolución: 1920x800p
  • Formato: MKV
  • Codec: H.264
  • Encoder: Dpelis
  • Mediainfo: Clic para Mostrar Datos Ver
  • The.zookeepers.wife.2017.1080p.LatinO.mkv
    Format                      : Matroska
    Format version              : Version 4 / Version 2
    File size                   : 3.73 GiB
    Duration                    : 2 h 6 min
    Overall bit rate            : 4 221 kb/s
    Movie name                  : DPeliculasHDMega.ORG
    Encoded date                : UTC 2017-06-20 04:12:29
    Writing application         : mkvmerge v10.0.0 ('To Drown In You') 64bit
    Writing library             : libebml v1.3.4 + libmatroska v1.4.5

    Video
    ID                          : 1
    Format                      : AVC
    Format/Info                 : Advanced Video Codec
    Format profile              : High@L4.1
    Format settings, CABAC      : Yes
    Format settings, ReFrames   : 4 frames
    Codec ID                    : V_MPEG4/ISO/AVC
    Duration                    : 2 h 6 min
    Bit rate                    : 3 500 kb/s
    Width                       : 1 920 pixels
    Height                      : 800 pixels
    Display aspect ratio        : 2.40:1
    Frame rate mode             : Constant
    Frame rate                  : 23.976 (24000/1001) FPS
    Color space                 : YUV
    Chroma subsampling          : 4:2:0
    Bit depth                   : 8 bits
    Scan type                   : Progressive
    Bits/(Pixel*Frame)          : 0.095
    Stream size                 : 3.05 GiB (82%)
    Writing library             : x264 core 148 r2708 86b7198
    Encoding settings           : cabac=1 / ref=3 / deblock=1:0:0 / analyse=0x3:0x113 / me=hex / subme=7 / psy=1 / psy_rd=1.00:0.00 / mixed_ref=1 / me_range=16 / chroma_me=1 / trellis=1 / 8x8dct=1 / cqm=0 / deadzone=21,11 / fast_pskip=1 / chroma_qp_offset=-2 / threads=12 / lookahead_threads=2 / sliced_threads=0 / nr=0 / decimate=1 / interlaced=0 / bluray_compat=0 / constrained_intra=0 / bframes=3 / b_pyramid=2 / b_adapt=1 / b_bias=0 / direct=1 / weightb=1 / open_gop=0 / weightp=2 / keyint=240 / keyint_min=24 / scenecut=40 / intra_refresh=0 / rc_lookahead=40 / rc=abr / mbtree=1 / bitrate=3500 / ratetol=1.0 / qcomp=0.60 / qpmin=0 / qpmax=69 / qpstep=4 / vbv_maxrate=62500 / vbv_bufsize=78125 / nal_hrd=none / filler=0 / ip_ratio=1.40 / aq=1:1.00
    Default                     : Yes
    Forced                      : No
    Color range                 : Limited
    Color primaries             : BT.709
    Transfer characteristics    : BT.709
    Matrix coefficients         : BT.709

    Audio #1
    ID                          : 2
    Format                      : AC-3
    Format/Info                 : Audio Coding 3
    Format settings, Endianness : Big
    Codec ID                    : A_AC3
    Duration                    : 2 h 6 min
    Bit rate mode               : Constant
    Bit rate                    : 384 kb/s
    Channel(s)                  : 6 channels
    Channel positions           : Front: L C R, Side: L R, LFE
    Sampling rate               : 48.0 kHz
    Frame rate                  : 31.250 FPS (1536 spf)
    Bit depth                   : 16 bits
    Compression mode            : Lossy
    Delay relative to video     : -5 ms
    Stream size                 : 347 MiB (9%)
    Language                    : Spanish
    Service kind                : Complete Main
    Default                     : Yes
    Forced                      : No

    Audio #2
    ID                          : 3
    Format                      : AC-3
    Format/Info                 : Audio Coding 3
    Format settings, Endianness : Big
    Codec ID                    : A_AC3
    Duration                    : 2 h 6 min
    Bit rate mode               : Constant
    Bit rate                    : 384 kb/s
    Channel(s)                  : 6 channels
    Channel positions           : Front: L C R, Side: L R, LFE
    Sampling rate               : 48.0 kHz
    Frame rate                  : 31.250 FPS (1536 spf)
    Bit depth                   : 16 bits
    Compression mode            : Lossy
    Delay relative to video     : -5 ms
    Stream size                 : 347 MiB (9%)
    Language                    : English
    Service kind                : Complete Main
    Default                     : No
    Forced                      : No

    Text #1
    ID                          : 4
    Format                      : UTF-8
    Codec ID                    : S_TEXT/UTF8
    Codec ID/Info               : UTF-8 Plain Text
    Duration                    : 1 h 59 min
    Bit rate                    : 32 b/s
    Count of elements           : 903
    Stream size                 : 28.6 KiB (0%)
    Language                    : Spanish
    Default                     : No
    Forced                      : No

    Text #2
    ID                          : 5
    Format                      : UTF-8
    Codec ID                    : S_TEXT/UTF8
    Codec ID/Info               : UTF-8 Plain Text
    Duration                    : 5 min 56 s
    Bit rate                    : 0 b/s
    Count of elements           : 3
    Stream size                 : 23.0 Bytes (0%)
    Title                       : FORZADOS
    Language                    : Spanish
    Default                     : Yes
    Forced                      : No

    Text #3
    ID                          : 6
    Format                      : UTF-8
    Codec ID                    : S_TEXT/UTF8
    Codec ID/Info               : UTF-8 Plain Text
    Duration                    : 1 h 57 min
    Bit rate                    : 31 b/s
    Count of elements           : 926
    Stream size                 : 26.9 KiB (0%)
    Language                    : English
    Default                     : No
    Forced                      : No

    Menu
    00:00:00.000                : en:00:00:00.000
    00:04:55.337                : en:00:04:55.336
    00:14:23.112                : en:00:14:23.112
    00:21:16.942                : en:00:21:16.942
    00:29:50.247                : en:00:29:50.246
    00:35:39.679                : en:00:35:39.679
    00:40:25.590                : en:00:40:25.589
    00:49:46.192                : en:00:49:46.191
    00:54:01.196                : en:00:54:01.196
    01:00:25.664                : en:01:00:25.663
    01:06:21.686                : en:01:06:21.686
    01:11:48.930                : en:01:11:48.929
    01:19:45.864                : en:01:19:45.864
    01:25:10.647                : en:01:25:10.647
    01:30:12.449                : en:01:30:12.448
    01:36:42.422                : en:01:36:42.421
    01:39:32.925                : en:01:39:32.925
    01:46:18.372                : en:01:46:18.372
    01:55:17.160                : en:01:55:17.160
    02:01:44.297                : en:02:01:44.297

  • Peso: 3.73 GB

Sinopsis

Descargar Pelicula La casa de la esperanza  hd 1080p Latino,Varsovia, Segunda Guerra Mundial. Jan Zabinski (Johan Heldenbergh) y su mujer Antonina (Jessica Chastain) son los encargados del zoo de la ciudad. Forman una familia feliz que, junto a su hijo, cuidan y sienten un gran amor por los animales. La llegada de los nazis a Polonia trunca por completo el funcionamiento del zoo, además de la estabilidad de la familia. Comienza entonces una peligrosa misión, ya que el matrimonio decide colaborar con la resistencia clandestina polaca para rescatar a cientos de judíos, refugiándolos dentro del zoo. Arriesgando sus propias vidas, y bajo la atenta mirada del nuevo jefe del zoológico nazi Lutz Heck (Daniel Brühl), este matrimonio consiguió salvar la vida de cientos de personas.

Basada en la novela de no ficción de la naturalista Diane Ackerman, que se inspiró en los diarios de la propia Antonina Zabinski, este drama histórico lo dirige Niki Caro (En tierra de hombres). El reparto protagonista está formado por Jessica Chastain (El caso Sloane, La cumbre escarlata), Johan Heldenbergh (Las confesiones, El nuevo nuevo testamento) y Daniel Brühl (Capitán América: Civil War, Rush).

Ficha técnica

  • Titulo original: The Zookeeper's Wife
  • Fecha de lanzamiento: 31-03-2017
  • Director: Niki Caro
  • Género: Drama, Historia
  • Puntuación: 0.0 0 votos
  • Duración:
    2h 4m

Video trailer de la película

Enlaces de descarga

Rip de Bluray

Descargar La casa de la esperanza (2017) 1080p Latino




Aportes de DPeliculasHDmega la pass es:dpeliculashdmega.org Aportes de CinemaniaHD la pass es:cinemaniahdd.com
Guardado en : Drama , Historia

Películas relacionadas

  • Sicario (2015) Full 1080p Latino

    2015
    Sicario (2015) Full 1080p Latino

    5.0 2h 1m 2015

    En la zona fronteriza que se extiende entre Estados Unidos y México la joven Kate Macer, una idealista...

    Director: Judi Townsend

    Género: Acción

    Actores: Victor Garber

  • Fahrenheit 451 (2018) Full 1080p Latino

    2018
    Fahrenheit 451 (2018) Full 1080p Latino

    5.0 1h 36m 2018

    Michael B. Jordan y Michael Shannon protagonizan esta adaptación de HBO de la clásica novela distópica...

    Director: Ramin Bahrani

    Género: Ciencia ficción

    Actores: Tim Post

Comentarios 2
  • martin omar - 20 junio, 2017

    se ve muy interesante.
    para cuando la caratula gris? 🙂

    • dpelis - 20 junio, 2017

      esta semana