Kung Fu Panda 2 (2011) Full 1080p Latino

574 vistas
1 estrella2 estrellas3 estrellas4 estrellas5 estrellas (1 votos, promedio: 5,00 de 5)
Cargando…

Información de Kung Fu Panda 2 (2011) Full 1080p Latino

Datos de la película

  • Calidad: Full 1080p
  • Audio: Español Latino AC3 5.1 BLURAY - Ingles DTS 5.1 BLURAY
  • Subtitulos: Español Latino PGS - Ingles PGS
  • Resolución: 1920x1080p
  • Formato: MKV
  • Codec: H.264
  • Encoder: Dracarys
  • Mediainfo: Clic para Mostrar Datos Ver
  • Format                                   : Matroska
    Format version                           : Version 4 / Version 2
    File size                                : 3.36 GiB
    Duration                                 : 1 h 30 min
    Overall bit rate                         : 5 316 kb/s
    Movie name                               : CinemaniaHDD.com
    Encoded date                             : UTC 2018-03-22 19:22:15 / UTC 2018-03-21T22:11:26Z
    Writing application                      : mkvmerge v15.0.0 ('Duel with the Devil') 64-bit
    Writing library                          : libebml v1.3.5 + libmatroska v1.4.5 / Lavf57.7.2

    Video
    ID                                       : 1
    Format                                   : AVC
    Format/Info                              : Advanced Video Codec
    Format profile                           : High@L4.1
    Format settings                          : CABAC / 4 Ref Frames
    Format settings, CABAC                   : Yes
    Format settings, RefFrames               : 4 frames
    Codec ID                                 : V_MPEG4/ISO/AVC
    Duration                                 : 1 h 30 min
    Bit rate                                 : 4 122 kb/s
    Width                                    : 1 920 pixels
    Height                                   : 1 080 pixels
    Display aspect ratio                     : 16:9
    Frame rate mode                          : Constant
    Frame rate                               : 23.976 (24000/1001) FPS
    Color space                              : YUV
    Chroma subsampling                       : 4:2:0
    Bit depth                                : 8 bits
    Scan type                                : Progressive
    Bits/(Pixel*Frame)                       : 0.083
    Stream size                              : 2.60 GiB (78%)
    Title                                    : Kung Fu Panda 2 (2011) Full 1080p Latino
    Writing library                          : x264 core 148 r2708 86b7198
    Encoding settings                        : cabac=1 / ref=4 / deblock=1:0:0 / analyse=0x3:0x133 / me=esa / subme=9 / psy=1 / psy_rd=1.00:0.00 / mixed_ref=1 / me_range=16 / chroma_me=1 / trellis=2 / 8x8dct=1 / cqm=0 / deadzone=21,11 / fast_pskip=1 / chroma_qp_offset=-2 / threads=34 / lookahead_threads=2 / sliced_threads=0 / nr=0 / decimate=1 / interlaced=0 / bluray_compat=0 / constrained_intra=0 / bframes=3 / b_pyramid=2 / b_adapt=2 / b_bias=0 / direct=3 / weightb=1 / open_gop=0 / weightp=2 / keyint=240 / keyint_min=24 / scenecut=40 / intra_refresh=0 / rc_lookahead=60 / rc=crf / mbtree=1 / crf=20.0 / qcomp=0.60 / qpmin=0 / qpmax=69 / qpstep=4 / vbv_maxrate=62500 / vbv_bufsize=78125 / crf_max=0.0 / nal_hrd=none / filler=0 / ip_ratio=1.40 / aq=1:1.00
    Language                                 : English
    Default                                  : Yes
    Forced                                   : No
    Color range                              : Limited
    Color primaries                          : BT.709
    Transfer characteristics                 : BT.709
    Matrix coefficients                      : BT.709
    Statistics Tags Issue                    : mkvmerge v15.0.0 ('Duel with the Devil') 64-bit 2018-03-22 19:22:15 / mkvmerge v15.0.0 ('Duel with the Devil') 64-bit 2018-03-22 19:22:15 / UTC 2018-03-21T22:11:26Z
    FromStats_BitRate                        : 4204030
    FromStats_Duration                       : 01:30:23.961000000
    FromStats_FrameCount                     : 130045
    FromStats_StreamSize                     : 2850312234

    Audio #1
    ID                                       : 2
    Format                                   : AC-3
    Format/Info                              : Audio Coding 3
    Format settings, Endianness              : Big
    Codec ID                                 : A_AC3
    Duration                                 : 1 h 30 min
    Bit rate mode                            : Constant
    Bit rate                                 : 448 kb/s
    Channel(s)                               : 6 channels
    Channel positions                        : Front: L C R, Side: L R, LFE
    Sampling rate                            : 48.0 kHz
    Frame rate                               : 31.250 FPS (1536 SPF)
    Bit depth                                : 16 bits
    Compression mode                         : Lossy
    Stream size                              : 290 MiB (8%)
    Language                                 : Spanish
    Service kind                             : Complete Main
    Default                                  : Yes
    Forced                                   : No
    Statistics Tags Issue                    : mkvmerge v15.0.0 ('Duel with the Devil') 64-bit 2018-03-22 19:22:15 / mkvmerge v15.0.0 ('Duel with the Devil') 64-bit 2018-03-22 19:22:15 / UTC 2018-03-21T22:11:26Z
    FromStats_BitRate                        : 448000
    FromStats_Duration                       : 01:30:23.904000000
    FromStats_FrameCount                     : 169497
    FromStats_StreamSize                     : 303738624

    Audio #2
    ID                                       : 3
    Format                                   : AC-3
    Format/Info                              : Audio Coding 3
    Format settings, Endianness              : Big
    Codec ID                                 : A_AC3
    Duration                                 : 1 h 30 min
    Bit rate mode                            : Constant
    Bit rate                                 : 640 kb/s
    Channel(s)                               : 6 channels
    Channel positions                        : Front: L C R, Side: L R, LFE
    Sampling rate                            : 48.0 kHz
    Frame rate                               : 31.250 FPS (1536 SPF)
    Bit depth                                : 16 bits
    Compression mode                         : Lossy
    Stream size                              : 414 MiB (12%)
    Language                                 : English
    Service kind                             : Complete Main
    Default                                  : No
    Forced                                   : No
    Statistics Tags Issue                    : mkvmerge v15.0.0 ('Duel with the Devil') 64-bit 2018-03-22 19:22:15 / mkvmerge v15.0.0 ('Duel with the Devil') 64-bit 2018-03-22 19:22:15 / UTC 2018-03-21T22:11:26Z
    FromStats_BitRate                        : 640000
    FromStats_Duration                       : 01:30:23.968000000
    FromStats_FrameCount                     : 169499
    FromStats_StreamSize                     : 433917440

    Text #1
    ID                                       : 4
    Format                                   : PGS
    Muxing mode                              : zlib
    Codec ID                                 : S_HDMV/PGS
    Codec ID/Info                            : Picture based subtitle format used on BDs/HD-DVDs
    Language                                 : English
    Default                                  : No
    Forced                                   : No
    Statistics Tags Issue                    : mkvmerge v15.0.0 ('Duel with the Devil') 64-bit 2018-03-22 19:22:15 / mkvmerge v15.0.0 ('Duel with the Devil') 64-bit 2018-03-22 19:22:15 / UTC 2018-03-21T22:11:26Z
    FromStats_BitRate                        : 35586
    FromStats_Duration                       : 01:30:02.480000000
    FromStats_FrameCount                     : 1750
    FromStats_StreamSize                     : 24032077

    Text #2
    ID                                       : 5
    Format                                   : PGS
    Muxing mode                              : zlib
    Codec ID                                 : S_HDMV/PGS
    Codec ID/Info                            : Picture based subtitle format used on BDs/HD-DVDs
    Language                                 : Spanish
    Default                                  : No
    Forced                                   : No
    Statistics Tags Issue                    : mkvmerge v15.0.0 ('Duel with the Devil') 64-bit 2018-03-22 19:22:15 / mkvmerge v15.0.0 ('Duel with the Devil') 64-bit 2018-03-22 19:22:15 / UTC 2018-03-21T22:11:26Z
    FromStats_BitRate                        : 35664
    FromStats_Duration                       : 01:30:01.480000000
    FromStats_FrameCount                     : 1715
    FromStats_StreamSize                     : 24080113

    Menu
    00:00:00.000                             : :Chapter 1
    00:03:54.276                             : :Chapter 2
    00:10:35.343                             : :Chapter 3
    00:16:09.385                             : :Chapter 4
    00:21:15.775                             : :Chapter 5
    00:29:56.628                             : :Chapter 6
    00:36:53.878                             : :Chapter 7
    00:41:14.180                             : :Chapter 8
    00:49:44.815                             : :Chapter 9
    00:54:06.827                             : :Chapter 10
    00:58:54.781                             : :Chapter 11
    01:05:09.239                             : :Chapter 12
    01:11:43.800                             : :Chapter 13
    01:15:31.902                             : :Chapter 14
    01:21:15.871                             : :Chapter 15

  • Peso: 3.36 GiB

Sinopsis

Po está ahora viviendo su sueño como el Guerrero del Dragón, protegiendo el Valle de la Paz junto a sus amigos y sus compañeros maestros del kung fu. Los Cinco Furiosos. Pero su nueva e impresionante vida se encuentra amenazada por la aparición de un villano formidable, que planea usar un arma secreta imparable para conquistar China y destruir el kung fu. Po debe volver la vista a su pasado para descubrir los secretos de su misterioso origen; solo entonces podrá adquirir la fuerza que necesita para vencer.

Ficha técnica

Video trailer de la película

Enlaces de descarga

Rip de Bluray

Descargar Kung Fu Panda 2 (2011) Full 1080p Latino




Aportes de DPeliculasHDmega la pass es:dpeliculashdmega.org Aportes de CinemaniaHD la pass es:cinemaniahdd.com

Películas relacionadas

  • Si solo pudiera imaginar (2018) Full 1080p Latino

    2018
    Si solo pudiera imaginar (2018) Full 1080p Latino

    5.0 1 h 50 min 2018

    La historia real de la aclamada canción "I Can Only Imagine", la canción cristiana contemporánea más...

    Director: Jon Erwin

    Género: Drama

    Actores: Trace Adkins

  • Duck Duck Goose (2018) WEB-DL 1080p Latino

    2018
    Duck Duck Goose (2018) WEB-DL 1080p Latino

    0.0 1h 22m 2018

    Después de que sufrió una lesión, un soltero de alto vuelo se enfrenta a dos huérfanos de ojos muy...

    Director: Christopher Jenkins

    Género: Animación

    Actores: Zendaya

  • El Justiciero (2014) Full 1080p Latino

    2014
    El Justiciero (2014) Full 1080p Latino

    4.0 2 h 12 min 2014

    Robert McCall, un antiguo agente de la CIA que lleva ahora una vida tranquila, abandona su retiro para...

    Director: Deirdre Horgan

    Género: Acción

    Actores: Yan Dron

Comentarios 0