Kubo y la búsqueda del samurái (2016) Full 1080p Latino

890 vistas
1 estrella2 estrellas3 estrellas4 estrellas5 estrellas (Ninguna valoración todavía)
Cargando…

Información de Kubo y la búsqueda del samurái (2016) Full 1080p Latino

Datos de la película

  • Calidad: Full 1080p
  • Audio: Español Latino DTS 5.1 BLURAY - Ingles DTS 5.1 BLURAY
  • Subtitulos: Español Latino PGS - Ingles PGS
  • Resolución: 1920x1080p
  • Formato: MKV
  • Codec: H.264
  • Encoder: Dracarys
  • Mediainfo: Clic para Mostrar Datos Ver
  • Format                                   : Matroska
    Format version                           : Version 4 / Version 2
    File size                                : 4.77 GiB
    Duration                                 : 1 h 41 min
    Overall bit rate                         : 6 722 kb/s
    Movie name                               : CinemaniaHDD.com
    Encoded date                             : UTC 2018-05-16 21:37:05 / UTC 2018-05-16T10:43:34Z
    Writing application                      : mkvmerge v15.0.0 ('Duel with the Devil') 64-bit
    Writing library                          : libebml v1.3.5 + libmatroska v1.4.5 / Lavf57.7.2

    Video
    ID                                       : 1
    Format                                   : AVC
    Format/Info                              : Advanced Video Codec
    Format profile                           : High@L4.1
    Format settings                          : CABAC / 4 Ref Frames
    Format settings, CABAC                   : Yes
    Format settings, RefFrames               : 4 frames
    Codec ID                                 : V_MPEG4/ISO/AVC
    Duration                                 : 1 h 41 min
    Bit rate                                 : 4 311 kb/s
    Width                                    : 1 920 pixels
    Height                                   : 1 080 pixels
    Display aspect ratio                     : 16:9
    Frame rate mode                          : Constant
    Frame rate                               : 23.976 (24000/1001) FPS
    Color space                              : YUV
    Chroma subsampling                       : 4:2:0
    Bit depth                                : 8 bits
    Scan type                                : Progressive
    Bits/(Pixel*Frame)                       : 0.087
    Stream size                              : 3.06 GiB (64%)
    Title                                    : Kubo y la búsqueda del samurái (2016) Full 1080p Latino
    Writing library                          : x264 core 148 r2708 86b7198
    Encoding settings                        : cabac=1 / ref=4 / deblock=1:0:0 / analyse=0x3:0x133 / me=esa / subme=9 / psy=1 / psy_rd=1.00:0.00 / mixed_ref=1 / me_range=16 / chroma_me=1 / trellis=2 / 8x8dct=1 / cqm=0 / deadzone=21,11 / fast_pskip=1 / chroma_qp_offset=-2 / threads=34 / lookahead_threads=2 / sliced_threads=0 / nr=0 / decimate=1 / interlaced=0 / bluray_compat=0 / constrained_intra=0 / bframes=3 / b_pyramid=2 / b_adapt=2 / b_bias=0 / direct=3 / weightb=1 / open_gop=0 / weightp=2 / keyint=240 / keyint_min=24 / scenecut=40 / intra_refresh=0 / rc_lookahead=60 / rc=crf / mbtree=1 / crf=20.0 / qcomp=0.60 / qpmin=0 / qpmax=69 / qpstep=4 / vbv_maxrate=62500 / vbv_bufsize=78125 / crf_max=0.0 / nal_hrd=none / filler=0 / ip_ratio=1.40 / aq=1:1.00
    Language                                 : English
    Default                                  : Yes
    Forced                                   : No
    Color range                              : Limited
    Color primaries                          : BT.709
    Transfer characteristics                 : BT.709
    Matrix coefficients                      : BT.709
    Statistics Tags Issue                    : mkvmerge v15.0.0 ('Duel with the Devil') 64-bit 2018-05-16 21:37:05 / mkvmerge v15.0.0 ('Duel with the Devil') 64-bit 2018-05-16 21:37:05 / UTC 2018-05-16T10:43:34Z
    FromStats_BitRate                        : 4425193
    FromStats_Duration                       : 01:41:36.257000000
    FromStats_FrameCount                     : 146164
    FromStats_StreamSize                     : 3372139824

    Audio #1
    ID                                       : 2
    Format                                   : DTS
    Format/Info                              : Digital Theater Systems
    Mode                                     : 16
    Format settings, Endianness              : Big
    Codec ID                                 : A_DTS
    Duration                                 : 1 h 41 min
    Bit rate mode                            : Constant
    Bit rate                                 : 768 kb/s
    Channel(s)                               : 6 channels
    Channel positions                        : Front: L C R, Side: L R, LFE
    Sampling rate                            : 48.0 kHz
    Frame rate                               : 93.750 FPS (512 SPF)
    Bit depth                                : 24 bits
    Compression mode                         : Lossy
    Delay relative to video                  : 43 ms
    Stream size                              : 558 MiB (11%)
    Language                                 : Spanish
    Default                                  : Yes
    Forced                                   : No
    Statistics Tags Issue                    : mkvmerge v15.0.0 ('Duel with the Devil') 64-bit 2018-05-16 21:37:05 / mkvmerge v15.0.0 ('Duel with the Devil') 64-bit 2018-05-16 21:37:05 / UTC 2018-05-16T10:43:34Z
    FromStats_BitRate                        : 768000
    FromStats_Duration                       : 01:41:36.213000000
    FromStats_FrameCount                     : 571520
    FromStats_StreamSize                     : 585236480

    Audio #2
    ID                                       : 3
    Format                                   : DTS
    Format/Info                              : Digital Theater Systems
    Mode                                     : 16
    Format settings, Endianness              : Big
    Codec ID                                 : A_DTS
    Duration                                 : 1 h 41 min
    Bit rate mode                            : Constant
    Bit rate                                 : 1 509 kb/s
    Channel(s)                               : 6 channels
    Channel positions                        : Front: L C R, Side: L R, LFE
    Sampling rate                            : 48.0 kHz
    Frame rate                               : 93.750 FPS (512 SPF)
    Bit depth                                : 24 bits
    Compression mode                         : Lossy
    Delay relative to video                  : 43 ms
    Stream size                              : 1.07 GiB (22%)
    Language                                 : English
    Default                                  : No
    Forced                                   : No
    Statistics Tags Issue                    : mkvmerge v15.0.0 ('Duel with the Devil') 64-bit 2018-05-16 21:37:05 / mkvmerge v15.0.0 ('Duel with the Devil') 64-bit 2018-05-16 21:37:05 / UTC 2018-05-16T10:43:34Z
    FromStats_BitRate                        : 1509000
    FromStats_Duration                       : 01:41:36.213000000
    FromStats_FrameCount                     : 571520
    FromStats_StreamSize                     : 1149898240

    Text #1
    ID                                       : 4
    Format                                   : PGS
    Muxing mode                              : zlib
    Codec ID                                 : S_HDMV/PGS
    Codec ID/Info                            : Picture based subtitle format used on BDs/HD-DVDs
    Language                                 : English
    Default                                  : No
    Forced                                   : No
    Statistics Tags Issue                    : mkvmerge v15.0.0 ('Duel with the Devil') 64-bit 2018-05-16 21:37:05 / mkvmerge v15.0.0 ('Duel with the Devil') 64-bit 2018-05-16 21:37:05 / UTC 2018-05-16T10:43:34Z
    FromStats_BitRate                        : 32872
    FromStats_Duration                       : 01:32:30.002000000
    FromStats_FrameCount                     : 2482
    FromStats_StreamSize                     : 22805203

    Text #2
    ID                                       : 5
    Format                                   : PGS
    Muxing mode                              : zlib
    Codec ID                                 : S_HDMV/PGS
    Codec ID/Info                            : Picture based subtitle format used on BDs/HD-DVDs
    Language                                 : Spanish
    Default                                  : No
    Forced                                   : No
    Statistics Tags Issue                    : mkvmerge v15.0.0 ('Duel with the Devil') 64-bit 2018-05-16 21:37:05 / mkvmerge v15.0.0 ('Duel with the Devil') 64-bit 2018-05-16 21:37:05 / UTC 2018-05-16T10:43:34Z
    FromStats_BitRate                        : 24388
    FromStats_Duration                       : 01:41:11.190000000
    FromStats_FrameCount                     : 2115
    FromStats_StreamSize                     : 18508479

    Text #3
    ID                                       : 6
    Format                                   : PGS
    Muxing mode                              : zlib
    Codec ID                                 : S_HDMV/PGS
    Codec ID/Info                            : Picture based subtitle format used on BDs/HD-DVDs
    Title                                    : Forzados
    Language                                 : Spanish
    Default                                  : Yes
    Forced                                   : Yes
    Statistics Tags Issue                    : mkvmerge v15.0.0 ('Duel with the Devil') 64-bit 2018-05-16 21:37:05 / mkvmerge v15.0.0 ('Duel with the Devil') 64-bit 2018-05-16 21:37:05 / UTC 2018-05-16T10:43:34Z
    FromStats_BitRate                        : 44
    FromStats_Duration                       : 01:38:50.258000000
    FromStats_FrameCount                     : 4
    FromStats_StreamSize                     : 33207

    Menu
    00:00:00.000                             : :Chapter 1
    00:02:56.510                             : :Chapter 2
    00:07:10.639                             : :Chapter 3
    00:12:08.895                             : :Chapter 4
    00:17:19.956                             : :Chapter 5
    00:21:40.800                             : :Chapter 6
    00:25:58.390                             : :Chapter 7
    00:32:11.555                             : :Chapter 8
    00:36:58.049                             : :Chapter 9
    00:42:33.509                             : :Chapter 10
    00:47:48.657                             : :Chapter 11
    00:50:47.670                             : :Chapter 12
    00:56:48.947                             : :Chapter 13
    01:02:56.314                             : :Chapter 14
    01:08:28.271                             : :Chapter 15
    01:12:40.606                             : :Chapter 16
    01:20:00.629                             : :Chapter 17
    01:24:22.266                             : :Chapter 18
    01:28:46.071                             : :Chapter 19
    01:32:49.564                             : :Chapter 20

  • Peso: 4.77 GiB

Sinopsis

Kubo es un joven desaliñado y bondadoso que se gana la vida humildemente y cuida de su madre en una apacible aldea costera. Tiene una tranquila existencia hasta que un espíritu del pasado vuelve para llevar a cabo una vieja venganza. De repente, rodeado por dioses y monstruos, Kubo verá que su supervivencia pasa por encontrar la armadura mágica de su caído padre, el más grande samurai que el mundo ha conocido. Llenándose de coraje, Kubo se embarca en una emocionante odisea enfrentándose a su historia familiar, navegando entre los elementos y luchando valientemente por la Tierra y las estrellas.

Ficha técnica

Video trailer de la película

Enlaces de descarga

Rip de Bluray

Descargar Kubo y la búsqueda del samurái (2016) Full 1080p Latino




Aportes de DPeliculasHDmega la pass es:dpeliculashdmega.org Aportes de CinemaniaHD la pass es:cinemaniahdd.com

Películas relacionadas

  • Sicario (2015) Full 1080p Latino

    2015
    Sicario (2015) Full 1080p Latino

    5.0 2h 1m 2015

    En la zona fronteriza que se extiende entre Estados Unidos y México la joven Kate Macer, una idealista...

    Director: Judi Townsend

    Género: Acción

    Actores: Victor Garber

  • Fahrenheit 451 (2018) Full 1080p Latino

    2018
    Fahrenheit 451 (2018) Full 1080p Latino

    5.0 1h 36m 2018

    Michael B. Jordan y Michael Shannon protagonizan esta adaptación de HBO de la clásica novela distópica...

    Director: Ramin Bahrani

    Género: Ciencia ficción

    Actores: Tim Post

  • Atlantis el imperio perdido (2001) Full 1080p Latino

    2001
    Atlantis el imperio perdido (2001) Full 1080p Latino

    5.0 1h 35m 2001

    Un joven aventurero llamado Milo encuentra un antiguo diario que contiene pistas de cómo llegar a Atlantis,...

    Director: Lam Hoang

    Género: Animación

    Actores: Phil Morris

Comentarios 0