KISS: Rocks Vegas (2014) Full 1080p Concierto

1.207 vistas
1 estrella2 estrellas3 estrellas4 estrellas5 estrellas (8 votos, promedio: 3,25 de 5)
Cargando…

Información de KISS: Rocks Vegas (2014) Full 1080p Concierto

Datos de la película

  • Calidad: Full 1080p
  • Audio: Ingles DTS 5.1 BLURAY
  • Subtitulos: No
  • Resolución: 1920x1080p
  • Formato: MKV
  • Codec: H.264
  • Encoder: Dracarys
  • Mediainfo: Clic para Mostrar Datos Ver
  • Format                                   : Matroska
    Format version                           : Version 4 / Version 2
    File size                                : 11.9 GiB
    Duration                                 : 1 h 28 min
    Overall bit rate                         : 19.2 Mb/s
    Movie name                               : CinemaniaHDD.com
    Encoded date                             : UTC 2018-05-20 03:40:41 / UTC 2018-05-19T07:17:24Z
    Writing application                      : mkvmerge v15.0.0 ('Duel with the Devil') 64-bit
    Writing library                          : libebml v1.3.5 + libmatroska v1.4.5 / Lavf57.7.2

    Video
    ID                                       : 1
    Format                                   : AVC
    Format/Info                              : Advanced Video Codec
    Format profile                           : High@L4.1
    Format settings                          : CABAC / 4 Ref Frames
    Format settings, CABAC                   : Yes
    Format settings, RefFrames               : 4 frames
    Codec ID                                 : V_MPEG4/ISO/AVC
    Duration                                 : 1 h 28 min
    Bit rate                                 : 16.7 Mb/s
    Width                                    : 1 920 pixels
    Height                                   : 1 080 pixels
    Display aspect ratio                     : 16:9
    Frame rate mode                          : Constant
    Frame rate                               : 29.970 (30000/1001) FPS
    Color space                              : YUV
    Chroma subsampling                       : 4:2:0
    Bit depth                                : 8 bits
    Scan type                                : Progressive
    Bits/(Pixel*Frame)                       : 0.269
    Stream size                              : 10.3 GiB (87%)
    Title                                    : KISS: Rocks Vegas (2014) Full 1080p Concierto
    Writing library                          : x264 core 148 r2708 86b7198
    Encoding settings                        : cabac=1 / ref=4 / deblock=1:0:0 / analyse=0x3:0x133 / me=esa / subme=9 / psy=1 / psy_rd=1.00:0.00 / mixed_ref=1 / me_range=16 / chroma_me=1 / trellis=2 / 8x8dct=1 / cqm=0 / deadzone=21,11 / fast_pskip=1 / chroma_qp_offset=-2 / threads=34 / lookahead_threads=2 / sliced_threads=0 / nr=0 / decimate=1 / interlaced=0 / bluray_compat=0 / constrained_intra=0 / bframes=3 / b_pyramid=2 / b_adapt=2 / b_bias=0 / direct=3 / weightb=1 / open_gop=0 / weightp=2 / keyint=300 / keyint_min=30 / scenecut=40 / intra_refresh=0 / rc_lookahead=60 / rc=crf / mbtree=1 / crf=20.0 / qcomp=0.60 / qpmin=0 / qpmax=69 / qpstep=4 / vbv_maxrate=62500 / vbv_bufsize=78125 / crf_max=0.0 / nal_hrd=none / filler=0 / ip_ratio=1.40 / aq=1:1.00
    Language                                 : English
    Default                                  : Yes
    Forced                                   : No
    Color range                              : Limited
    Color primaries                          : BT.709
    Transfer characteristics                 : BT.709
    Matrix coefficients                      : BT.709
    Statistics Tags Issue                    : mkvmerge v15.0.0 ('Duel with the Devil') 64-bit 2018-05-20 03:40:41 / mkvmerge v15.0.0 ('Duel with the Devil') 64-bit 2018-05-20 03:40:41 / UTC 2018-05-19T07:17:24Z
    FromStats_BitRate                        : 17093169
    FromStats_Duration                       : 01:28:11.986000000
    FromStats_FrameCount                     : 158601
    FromStats_StreamSize                     : 11307101711

    Audio #1
    ID                                       : 2
    Format                                   : DTS
    Format/Info                              : Digital Theater Systems
    Mode                                     : 16
    Format settings, Endianness              : Big
    Codec ID                                 : A_DTS
    Duration                                 : 1 h 28 min
    Bit rate mode                            : Constant
    Bit rate                                 : 1 509 kb/s
    Channel(s)                               : 6 channels
    Channel positions                        : Front: L C R, Side: L R, LFE
    Sampling rate                            : 48.0 kHz
    Frame rate                               : 93.750 FPS (512 SPF)
    Bit depth                                : 16 bits
    Compression mode                         : Lossy
    Stream size                              : 952 MiB (8%)
    Title                                    : DTS
    Language                                 : English
    Default                                  : Yes
    Forced                                   : No
    Statistics Tags Issue                    : mkvmerge v15.0.0 ('Duel with the Devil') 64-bit 2018-05-20 03:40:41 / mkvmerge v15.0.0 ('Duel with the Devil') 64-bit 2018-05-20 03:40:41 / UTC 2018-05-19T07:17:24Z
    FromStats_BitRate                        : 1508999
    FromStats_Duration                       : 01:28:11.979000000
    FromStats_FrameCount                     : 496123
    FromStats_StreamSize                     : 998199476

    Audio #2
    ID                                       : 3
    Format                                   : AC-3
    Format/Info                              : Audio Coding 3
    Format settings, Endianness              : Big
    Codec ID                                 : A_AC3
    Duration                                 : 1 h 28 min
    Bit rate mode                            : Constant
    Bit rate                                 : 640 kb/s
    Channel(s)                               : 6 channels
    Channel positions                        : Front: L C R, Side: L R, LFE
    Sampling rate                            : 48.0 kHz
    Frame rate                               : 31.250 FPS (1536 SPF)
    Bit depth                                : 16 bits
    Compression mode                         : Lossy
    Stream size                              : 404 MiB (3%)
    Title                                    : AC3
    Language                                 : English
    Service kind                             : Complete Main
    Default                                  : No
    Forced                                   : No
    Statistics Tags Issue                    : mkvmerge v15.0.0 ('Duel with the Devil') 64-bit 2018-05-20 03:40:41 / mkvmerge v15.0.0 ('Duel with the Devil') 64-bit 2018-05-20 03:40:41 / UTC 2018-05-19T07:17:24Z
    FromStats_BitRate                        : 640000
    FromStats_Duration                       : 01:28:12.000000000
    FromStats_FrameCount                     : 165375
    FromStats_StreamSize                     : 423360000

    Menu
    00:00:00.000                             : :Chapter 1
    00:05:40.674                             : :Chapter 2
    00:10:00.533                             : :Chapter 3
    00:16:08.134                             : :Chapter 4
    00:20:06.672                             : :Chapter 5
    00:24:50.456                             : :Chapter 6
    00:29:06.712                             : :Chapter 7
    00:32:56.508                             : :Chapter 8
    00:39:27.065                             : :Chapter 9
    00:42:49.667                             : :Chapter 10
    00:47:17.668                             : :Chapter 11
    00:49:14.552                             : :Chapter 12
    00:52:25.676                             : :Chapter 13
    00:57:03.153                             : :Chapter 14
    01:01:29.586                             : :Chapter 15
    01:06:14.137                             : :Chapter 16
    01:16:11.300                             : :Chapter 17
    01:19:00.769                             : :Chapter 18
    01:26:41.463                             : :Chapter 19

  • Peso: 11.9 GiB

Sinopsis

Kiss Rocks Vegas es un álbum en vivo y DVD / Blu-ray de la banda estadounidense de hard rock Kiss, lanzado el 26 de agosto de 2016. El álbum fue grabado del 5 al 23 de noviembre de 2014 durante la residencia de la banda en el Hard Rock Hotel and Casino (Las Vegas) durante su gira del 40 aniversario.

Ficha técnica

Video trailer de la película

Enlaces de descarga

Rip de Bluray

Descargar KISS: Rocks Vegas (2014) Full 1080p Concierto




Aportes de DPeliculasHDmega la pass es:dpeliculashdmega.org Aportes de CinemaniaHD la pass es:cinemaniahdd.com
Guardado en : FULL 1080p Plateadas , Música

Películas relacionadas

  • Sicario (2015) Full 1080p Latino

    2015
    Sicario (2015) Full 1080p Latino

    5.0 2h 1m 2015

    En la zona fronteriza que se extiende entre Estados Unidos y México la joven Kate Macer, una idealista...

    Director: Judi Townsend

    Género: Acción

    Actores: Victor Garber

  • Fahrenheit 451 (2018) Full 1080p Latino

    2018
    Fahrenheit 451 (2018) Full 1080p Latino

    5.0 1h 36m 2018

    Michael B. Jordan y Michael Shannon protagonizan esta adaptación de HBO de la clásica novela distópica...

    Director: Ramin Bahrani

    Género: Ciencia ficción

    Actores: Tim Post

  • Atlantis el imperio perdido (2001) Full 1080p Latino

    2001
    Atlantis el imperio perdido (2001) Full 1080p Latino

    5.0 1h 35m 2001

    Un joven aventurero llamado Milo encuentra un antiguo diario que contiene pistas de cómo llegar a Atlantis,...

    Director: Lam Hoang

    Género: Animación

    Actores: Phil Morris

Comentarios 0