King Kong (2005) EXTENDED 4K HDR Latino

1.148 vistas
1 estrella2 estrellas3 estrellas4 estrellas5 estrellas (2 votos, promedio: 5,00 de 5)
Cargando…

Información de King Kong (2005) EXTENDED 4K HDR Latino

Datos de la película

  • Calidad: 4K HDR
  • Audio: Español Latino AC3 5.1 BLURAY - Ingles DTS 5.1 BLURAY
  • Subtitulos: Español Latino PGS - Ingles PGS
  • Resolución: 3840x1632p
  • Formato: MKV
  • Codec: H.265
  • Encoder: Dracarys
  • Mediainfo: Clic para Mostrar Datos Ver
  • Format                                   : Matroska
    Format version                           : Version 4 / Version 2
    File size                                : 26.4 GiB
    Duration                                 : 3 h 20 min
    Overall bit rate                         : 18.9 Mb/s
    Movie name                               : CinemaniaHDD.com
    Encoded date                             : UTC 2018-03-07 01:36:15
    Writing application                      : mkvmerge v15.0.0 ('Duel with the Devil') 64-bit
    Writing library                          : libebml v1.3.5 + libmatroska v1.4.5

    Video
    ID                                       : 1
    Format                                   : HEVC
    Format/Info                              : High Efficiency Video Coding
    Format profile                           : Main 10@L5.1@High
    Codec ID                                 : V_MPEGH/ISO/HEVC
    Duration                                 : 3 h 20 min
    Bit rate                                 : 16.7 Mb/s
    Width                                    : 3 840 pixels
    Height                                   : 1 632 pixels
    Display aspect ratio                     : 2.35:1
    Frame rate mode                          : Constant
    Frame rate                               : 23.976 (24000/1001) FPS
    Color space                              : YUV
    Chroma subsampling                       : 4:2:0 (Type 2)
    Bit depth                                : 10 bits
    Bits/(Pixel*Frame)                       : 0.111
    Stream size                              : 23.3 GiB (89%)
    Title                                    : King Kong (2005) EXTENDED 4K HDR Latino
    Writing library                          : x265 2.5+4-b4a5bcfe29c7:[Windows][GCC 4.9.3][64 bit] 10bit
    Encoding settings                        : cpuid=1173503 / frame-threads=16 / numa-pools=24,24,24,24 / wpp / no-pmode / no-pme / no-psnr / no-ssim / log-level=2 / input-csp=1 / input-res=3840x1632 / interlace=0 / total-frames=0 / level-idc=51 / high-tier=1 / uhd-bd=0 / ref=3 / no-allow-non-conformance / repeat-headers / annexb / aud / hrd / info / hash=0 / no-temporal-layers / no-open-gop / min-keyint=1 / keyint=24 / bframes=4 / b-adapt=2 / b-pyramid / bframe-bias=0 / rc-lookahead=25 / lookahead-slices=4 / scenecut=40 / no-intra-refresh / ctu=64 / min-cu-size=8 / no-rect / no-amp / max-tu-size=32 / tu-inter-depth=1 / tu-intra-depth=1 / limit-tu=0 / rdoq-level=0 / dynamic-rd=0.00 / no-ssim-rd / signhide / no-tskip / nr-intra=0 / nr-inter=0 / no-constrained-intra / strong-intra-smoothing / max-merge=2 / limit-refs=3 / no-limit-modes / me=1 / subme=2 / merange=57 / temporal-mvp / weightp / no-weightb / no-analyze-src-pics / deblock=0:0 / no-sao / no-sao-non-deblock / rd=3 / no-early-skip / rskip / no-fast-intra / no-tskip-fast / no-cu-lossless / no-b-intra / rdpenalty=0 / psy-rd=2.00 / psy-rdoq=0.00 / no-rd-refine / analysis-reuse-mode=0 / no-lossless / cbqpoffs=0 / crqpoffs=0 / rc=crf / crf=18.0 / qcomp=0.60 / qpstep=4 / stats-write=0 / stats-read=0 / vbv-maxrate=160000 / vbv-bufsize=160000 / vbv-init=0.9 / crf-max=0.0 / crf-min=0.0 / ipratio=1.40 / pbratio=1.30 / aq-mode=1 / aq-strength=1.00 / cutree / zone-count=0 / no-strict-cbr / qg-size=32 / no-rc-grain / qpmax=69 / qpmin=0 / no-const-vbv / sar=1 / overscan=0 / videoformat=5 / range=0 / colorprim=9 / transfer=16 / colormatrix=9 / chromaloc=1 / chromaloc-top=2 / chromaloc-bottom=2 / display-window=0 / master-display=G(13250,34500)B(7500,3000)R(34000,16000)WP(15635,16450)L(10000000,50) / max-cll=1000,96 / min-luma=0 / max-luma=1023 / log2-max-poc-lsb=8 / vui-timing-info / vui-hrd-info / slices=1 / opt-qp-pps / opt-ref-list-length-pps / no-multi-pass-opt-rps / scenecut-bias=0.05 / no-opt-cu-delta-qp / no-aq-motion / hdr / hdr-opt / no-dhdr10-opt / analysis-reuse-level=5 / scale-factor=0 / refine-intra=0 / refine-inter=0 / refine-mv=0 / no-limit-sao / ctu-info=0
    Language                                 : English
    Default                                  : Yes
    Forced                                   : No
    Color range                              : Limited
    Color primaries                          : BT.2020
    Transfer characteristics                 : PQ
    Matrix coefficients                      : BT.2020 non-constant
    Mastering display color primaries        : R: x=0.680000 y=0.320000, G: x=0.265000 y=0.690000, B: x=0.150000 y=0.060000, White point: x=0.312700 y=0.329000
    Mastering display luminance              : min: 0.0050 cd/m2, max: 1000.0000 cd/m2
    Maximum Content Light Level              : 1000 cd/m2
    Maximum Frame-Average Light Level        : 96 cd/m2

    Audio #1
    ID                                       : 2
    Format                                   : AC-3
    Format/Info                              : Audio Coding 3
    Format settings, Endianness              : Big
    Codec ID                                 : A_AC3
    Duration                                 : 3 h 20 min
    Bit rate mode                            : Constant
    Bit rate                                 : 640 kb/s
    Channel(s)                               : 6 channels
    Channel positions                        : Front: L C R, Side: L R, LFE
    Sampling rate                            : 48.0 kHz
    Frame rate                               : 31.250 FPS (1536 SPF)
    Bit depth                                : 16 bits
    Compression mode                         : Lossy
    Stream size                              : 916 MiB (3%)
    Language                                 : Spanish
    Service kind                             : Complete Main
    Default                                  : Yes
    Forced                                   : No

    Audio #2
    ID                                       : 3
    Format                                   : DTS
    Format/Info                              : Digital Theater Systems
    Mode                                     : 16
    Format settings, Endianness              : Big
    Codec ID                                 : A_DTS
    Duration                                 : 3 h 20 min
    Bit rate mode                            : Constant
    Bit rate                                 : 1 509 kb/s
    Channel(s)                               : 6 channels
    Channel positions                        : Front: L C R, Side: L R, LFE
    Sampling rate                            : 48.0 kHz
    Frame rate                               : 93.750 FPS (512 SPF)
    Bit depth                                : 24 bits
    Compression mode                         : Lossy
    Stream size                              : 2.11 GiB (8%)
    Language                                 : English
    Default                                  : No
    Forced                                   : No

    Text #1
    ID                                       : 4
    Format                                   : PGS
    Muxing mode                              : zlib
    Codec ID                                 : S_HDMV/PGS
    Codec ID/Info                            : Picture based subtitle format used on BDs/HD-DVDs
    Duration                                 : 3 h 9 min
    Bit rate                                 : 21.8 kb/s
    Count of elements                        : 3438
    Stream size                              : 29.5 MiB (0%)
    Language                                 : English
    Default                                  : No
    Forced                                   : No

    Text #2
    ID                                       : 5
    Format                                   : PGS
    Muxing mode                              : zlib
    Codec ID                                 : S_HDMV/PGS
    Codec ID/Info                            : Picture based subtitle format used on BDs/HD-DVDs
    Duration                                 : 3 h 18 min
    Bit rate                                 : 15.4 kb/s
    Count of elements                        : 2596
    Stream size                              : 22.0 MiB (0%)
    Language                                 : Spanish
    Default                                  : No
    Forced                                   : No

    Menu
    00:00:00.000                             : en:Opening - New York 1933
    00:03:02.807                             : en:Vaudeville
    00:04:20.802                             : en:Theater Closed
    00:06:43.945                             : en:Denham's Screening
    00:10:29.670                             : en:"Defeat Is Always Momentary"
    00:12:33.210                             : en:A Fateful Meeting
    00:14:18.399                             : en:"A Woman Born to Play this Role"
    00:17:40.893                             : en:The Moving Picture Ship
    00:20:25.849                             : en:An Early Departure
    00:24:13.285                             : en:Jack's "Quarters"
    00:25:55.637                             : en:Bruce Settles In
    00:26:13.363                             : en:Jimmy's Story
    00:28:00.637                             : en:Ann Meets Jack Driscoll
    00:30:29.536                             : en:A Moustache for Bruce
    00:31:07.448                             : en:"We're Filming on an Island Now?"
    00:33:07.360                             : en:Filming a Classic Scene
    00:34:14.510                             : en:Romance on the Venture
    00:36:55.880                             : en:The Last Blank Space on the Map
    00:39:45.674                             : en:A Long Sea Voyage
    00:41:07.506                             : en:"It's in the Sub-Text"
    00:42:31.715                             : en:A Change of Course
    00:43:45.873                             : en:Skull Island
    00:52:20.178                             : en:Expedition Ashore
    00:55:49.929                             : en:The Inhabitants of Skull Island
    01:02:07.265                             : en:Ann's Abduction
    01:07:32.798                             : en:The Sacrifice
    01:12:39.480                             : en:Rescue Party
    01:14:14.658                             : en:Ceratops Attack
    01:16:58.947                             : en:The Killing Ground
    01:20:23.485                             : en:Discovering the Footprint
    01:22:42.165                             : en:Brontosaurus Stampede
    01:29:20.521                             : en:Playing Dead
    01:30:16.577                             : en:The Party Is Divided
    01:32:09.815                             : en:Ann Disarms Kong
    01:38:55.346                             : en:The Swamp Journey
    01:44:44.111                             : en:Encountering the Moa Bird
    01:46:17.954                             : en:The Log Chasm
    01:50:02.012                             : en:The T-Rex Battle
    02:01:41.252                             : en:The Insect Pit
    02:09:08.657                             : en:"Beautiful"
    02:13:18.990                             : en:Denham's Plan
    02:15:51.476                             : en:Jack Rescues Ann
    02:21:36.029                             : en:Captured
    02:30:16.507                             : en:"Eighth Wonder of the World"
    02:32:11.705                             : en:"Cry Havoc!"
    02:34:02.149                             : en:Carl Denham Presents Kong
    02:43:14.784                             : en:Kong in New York
    02:47:50.560                             : en:Reunited
    02:52:23.875                             : en:Under Attack
    02:54:05.268                             : en:The Empire State Building
    02:56:23.989                             : en:Kong's Last Stand
    03:03:57.484                             : en:"It was Beauty Killed the Beast"
    03:10:36.049                             : en:End Credits

  • Peso: 26.4 GiB

Sinopsis

La suerte de Ann Darrow cambia cuando conoce a Carl Denham, un empresario que lucha para abrirse camino en el mundo del espectáculo. A ellos se une Jack Driscoll, un autor de teatro neoyorquino. Los tres emprenden un viaje que los llevará a una remota isla, donde Denham tiene previsto dirigir una película. Allí descubren un ser increíble, un gorila gigante, King Kong, que habita en una frondosa selva donde criaturas prehistóricas han vivido ocultas durante millones de años. Denham, con un apetito insaciable de grandeza, enseguida ve la fama que puede reportarle la captura del gorila y su exhibición en Nueva York.

Ficha técnica

Video trailer de la película

Enlaces de descarga

Rip de Bluray

Descargar King Kong (2005) EXTENDED 4K HDR Latino




Aportes de DPeliculasHDmega la pass es:dpeliculashdmega.org Aportes de CinemaniaHD la pass es:cinemaniahdd.com
Guardado en : 4K HDR , 4K UHD , Acción , Aventura , Drama

Películas relacionadas

  • Occupation (2018) WEBDL 1080p Subtitulada

    2018
    Occupation (2018) WEBDL 1080p Subtitulada

    0.0 1h 59m 2018

    El film se centra en un grupo de civiles que ven como su pequeño pueblo en Australia es aniquilado por...

    Director: Luke Sparke

    Género: Acción

    Actores: Temuera Morrison

  • Tully (2018) 1080p Latino

    2018
    Tully (2018) 1080p Latino

    0.0 1 h 35 min 2018

    La historia de una mujer con tres hijos que, incapaz de lidiar con su bebé recién nacido, contrata...

    Director: Jason Reitman

    Género: Comedia

    Actores: Stormy Ent

  • Si solo pudiera imaginar (2018) Full 1080p Latino

    2018
    Si solo pudiera imaginar (2018) Full 1080p Latino

    4.8 1 h 50 min 2018

    La historia real de la aclamada canción "I Can Only Imagine", la canción cristiana contemporánea más...

    Director: Jon Erwin

    Género: Drama

    Actores: Trace Adkins

  • El Justiciero (2014) Full 1080p Latino

    2014
    El Justiciero (2014) Full 1080p Latino

    4.3 2 h 12 min 2014

    Robert McCall, un antiguo agente de la CIA que lleva ahora una vida tranquila, abandona su retiro para...

    Director: Deirdre Horgan

    Género: Acción

    Actores: Yan Dron

Comentarios 2
  • Pablo - 07 marzo, 2018

    Por que las peliculas en 4k se ven descoloridas? es la única duda que tengo, exelentes aportes!

    • Dracarys - 07 marzo, 2018

      Tienes que tener un Reproductor con HDR para verlas bien o una TV que sea compatible con HDR