Kick-Ass (2010) Full 1080p Latino

898 vistas
1 estrella2 estrellas3 estrellas4 estrellas5 estrellas (2 votos, promedio: 3,00 de 5)
Cargando…

Información de Kick-Ass (2010) Full 1080p Latino

Datos de la película

  • Calidad: Full 1080p
  • Audio: Español Latino AC3 5.1 BLURAY - Ingles DTS 5.1 BLURAY
  • Subtitulos: Español Latino PGS - Ingles PGS
  • Resolución: 1920X1080p
  • Formato: MKV
  • Codec: H.264
  • Encoder: Dracarys
  • Mediainfo: Clic para Mostrar Datos Ver
  • Format                                   : Matroska
    Format version                           : Version 4 / Version 2
    File size                                : 7.28 GiB
    Duration                                 : 1 h 57 min
    Overall bit rate                         : 8 850 kb/s
    Movie name                               : CinemaniaHDD.com
    Encoded date                             : UTC 2018-03-09 03:53:35 / UTC 2018-03-08T19:16:53Z
    Writing application                      : mkvmerge v15.0.0 ('Duel with the Devil') 64-bit
    Writing library                          : libebml v1.3.5 + libmatroska v1.4.5 / Lavf57.7.2

    Video
    ID                                       : 1
    Format                                   : AVC
    Format/Info                              : Advanced Video Codec
    Format profile                           : High@L4.1
    Format settings                          : CABAC / 4 Ref Frames
    Format settings, CABAC                   : Yes
    Format settings, RefFrames               : 4 frames
    Codec ID                                 : V_MPEG4/ISO/AVC
    Duration                                 : 1 h 57 min
    Bit rate                                 : 6 525 kb/s
    Width                                    : 1 920 pixels
    Height                                   : 1 080 pixels
    Display aspect ratio                     : 16:9
    Frame rate mode                          : Constant
    Frame rate                               : 23.976 (24000/1001) FPS
    Color space                              : YUV
    Chroma subsampling                       : 4:2:0
    Bit depth                                : 8 bits
    Scan type                                : Progressive
    Bits/(Pixel*Frame)                       : 0.131
    Stream size                              : 5.37 GiB (74%)
    Title                                    : Kick-Ass (2010) Full 1080p Latino
    Writing library                          : x264 core 148 r2708 86b7198
    Encoding settings                        : cabac=1 / ref=4 / deblock=1:0:0 / analyse=0x3:0x133 / me=esa / subme=10 / psy=1 / psy_rd=1.00:0.00 / mixed_ref=1 / me_range=24 / chroma_me=1 / trellis=2 / 8x8dct=1 / cqm=0 / deadzone=21,11 / fast_pskip=1 / chroma_qp_offset=-2 / threads=34 / lookahead_threads=5 / sliced_threads=0 / nr=0 / decimate=1 / interlaced=0 / bluray_compat=0 / constrained_intra=0 / bframes=8 / b_pyramid=2 / b_adapt=2 / b_bias=0 / direct=3 / weightb=1 / open_gop=0 / weightp=2 / keyint=240 / keyint_min=24 / scenecut=40 / intra_refresh=0 / rc_lookahead=60 / rc=crf / mbtree=1 / crf=20.0 / qcomp=0.60 / qpmin=0 / qpmax=69 / qpstep=4 / vbv_maxrate=62500 / vbv_bufsize=78125 / crf_max=0.0 / nal_hrd=none / filler=0 / ip_ratio=1.40 / aq=1:1.00
    Language                                 : English
    Default                                  : Yes
    Forced                                   : No
    Color range                              : Limited
    Color primaries                          : BT.709
    Transfer characteristics                 : BT.709
    Matrix coefficients                      : BT.709
    Statistics Tags Issue                    : mkvmerge v15.0.0 ('Duel with the Devil') 64-bit 2018-03-09 03:53:35 / mkvmerge v15.0.0 ('Duel with the Devil') 64-bit 2018-03-09 03:53:35 / UTC 2018-03-08T19:16:53Z
    FromStats_BitRate                        : 6661031
    FromStats_Duration                       : 01:57:44.891000000
    FromStats_FrameCount                     : 169388
    FromStats_StreamSize                     : 5882432674

    Audio #1
    ID                                       : 2
    Format                                   : AC-3
    Format/Info                              : Audio Coding 3
    Format settings, Endianness              : Big
    Codec ID                                 : A_AC3
    Duration                                 : 1 h 57 min
    Bit rate mode                            : Constant
    Bit rate                                 : 640 kb/s
    Channel(s)                               : 6 channels
    Channel positions                        : Front: L C R, Side: L R, LFE
    Sampling rate                            : 48.0 kHz
    Frame rate                               : 31.250 FPS (1536 SPF)
    Bit depth                                : 16 bits
    Compression mode                         : Lossy
    Stream size                              : 539 MiB (7%)
    Language                                 : Spanish
    Service kind                             : Complete Main
    Default                                  : Yes
    Forced                                   : No
    Statistics Tags Issue                    : mkvmerge v15.0.0 ('Duel with the Devil') 64-bit 2018-03-09 03:53:35 / mkvmerge v15.0.0 ('Duel with the Devil') 64-bit 2018-03-09 03:53:35 / UTC 2018-03-08T19:16:53Z
    FromStats_BitRate                        : 640000
    FromStats_Duration                       : 01:57:44.736000000
    FromStats_FrameCount                     : 220773
    FromStats_StreamSize                     : 565178880

    Audio #2
    ID                                       : 3
    Format                                   : DTS
    Format/Info                              : Digital Theater Systems
    Mode                                     : 16
    Format settings, Endianness              : Big
    Codec ID                                 : A_DTS
    Duration                                 : 1 h 57 min
    Bit rate mode                            : Constant
    Bit rate                                 : 1 509 kb/s
    Channel(s)                               : 6 channels
    Channel positions                        : Front: L C R, Side: L R, LFE
    Sampling rate                            : 48.0 kHz
    Frame rate                               : 93.750 FPS (512 SPF)
    Bit depth                                : 24 bits
    Compression mode                         : Lossy
    Stream size                              : 1.24 GiB (17%)
    Language                                 : English
    Default                                  : No
    Forced                                   : No
    Statistics Tags Issue                    : mkvmerge v15.0.0 ('Duel with the Devil') 64-bit 2018-03-09 03:53:35 / mkvmerge v15.0.0 ('Duel with the Devil') 64-bit 2018-03-09 03:53:35 / UTC 2018-03-08T19:16:53Z
    FromStats_BitRate                        : 1508999
    FromStats_Duration                       : 01:57:44.886000000
    FromStats_FrameCount                     : 662333
    FromStats_StreamSize                     : 1332613996

    Text #1
    ID                                       : 4
    Format                                   : UTF-8
    Codec ID                                 : S_TEXT/UTF8
    Codec ID/Info                            : UTF-8 Plain Text
    Title                                    : Forzados
    Language                                 : Spanish
    Default                                  : Yes
    Forced                                   : Yes
    Statistics Tags Issue                    : mkvmerge v15.0.0 ('Duel with the Devil') 64-bit 2018-03-09 03:53:35 / mkvmerge v15.0.0 ('Duel with the Devil') 64-bit 2018-03-09 03:53:35 / UTC 2018-03-08T19:16:53Z
    FromStats_BitRate                        : 0
    FromStats_Duration                       : 01:55:13.856000000
    FromStats_FrameCount                     : 31
    FromStats_StreamSize                     : 764

    Text #2
    ID                                       : 5
    Format                                   : UTF-8
    Codec ID                                 : S_TEXT/UTF8
    Codec ID/Info                            : UTF-8 Plain Text
    Language                                 : Spanish
    Default                                  : No
    Forced                                   : No
    Statistics Tags Issue                    : mkvmerge v15.0.0 ('Duel with the Devil') 64-bit 2018-03-09 03:53:35 / mkvmerge v15.0.0 ('Duel with the Devil') 64-bit 2018-03-09 03:53:35 / UTC 2018-03-08T19:16:53Z
    FromStats_BitRate                        : 61
    FromStats_Duration                       : 01:57:10.534000000
    FromStats_FrameCount                     : 1505
    FromStats_StreamSize                     : 54004

    Text #3
    ID                                       : 6
    Format                                   : PGS
    Muxing mode                              : zlib
    Codec ID                                 : S_HDMV/PGS
    Codec ID/Info                            : Picture based subtitle format used on BDs/HD-DVDs
    Title                                    : Forzados
    Language                                 : Spanish
    Default                                  : No
    Forced                                   : No
    Statistics Tags Issue                    : mkvmerge v15.0.0 ('Duel with the Devil') 64-bit 2018-03-09 03:53:35 / mkvmerge v15.0.0 ('Duel with the Devil') 64-bit 2018-03-09 03:53:35 / UTC 2018-03-08T19:16:53Z
    FromStats_BitRate                        : 1084
    FromStats_Duration                       : 01:55:13.872000000
    FromStats_FrameCount                     : 62
    FromStats_StreamSize                     : 936904

    Text #4
    ID                                       : 7
    Format                                   : PGS
    Muxing mode                              : zlib
    Codec ID                                 : S_HDMV/PGS
    Codec ID/Info                            : Picture based subtitle format used on BDs/HD-DVDs
    Language                                 : Spanish
    Default                                  : No
    Forced                                   : No
    Statistics Tags Issue                    : mkvmerge v15.0.0 ('Duel with the Devil') 64-bit 2018-03-09 03:53:35 / mkvmerge v15.0.0 ('Duel with the Devil') 64-bit 2018-03-09 03:53:35 / UTC 2018-03-08T19:16:53Z
    FromStats_BitRate                        : 55462
    FromStats_Duration                       : 01:57:10.531000000
    FromStats_FrameCount                     : 3010
    FromStats_StreamSize                     : 48741191

    Text #5
    ID                                       : 8
    Format                                   : PGS
    Muxing mode                              : zlib
    Codec ID                                 : S_HDMV/PGS
    Codec ID/Info                            : Picture based subtitle format used on BDs/HD-DVDs
    Language                                 : English
    Default                                  : No
    Forced                                   : No
    Statistics Tags Issue                    : mkvmerge v15.0.0 ('Duel with the Devil') 64-bit 2018-03-09 03:53:35 / mkvmerge v15.0.0 ('Duel with the Devil') 64-bit 2018-03-09 03:53:35 / UTC 2018-03-08T19:16:53Z
    FromStats_BitRate                        : 38372
    FromStats_Duration                       : 01:50:25.744000000
    FromStats_FrameCount                     : 2640
    FromStats_StreamSize                     : 31780452

    Menu
    00:00:00.000                             : :Chapter 1
    00:05:33.333                             : :Chapter 2
    00:15:55.621                             : :Chapter 3
    00:21:10.060                             : :Chapter 4
    00:28:17.696                             : :Chapter 5
    00:47:52.953                             : :Chapter 6
    00:52:34.818                             : :Chapter 7
    01:03:16.835                             : :Chapter 8
    01:10:16.879                             : :Chapter 9
    01:16:25.122                             : :Chapter 10
    01:25:17.279                             : :Chapter 11
    01:30:26.046                             : :Chapter 12
    01:38:17.350                             : :Chapter 13
    01:43:57.982                             : :Chapter 14
    01:47:05.419                             : :Chapter 15
    01:49:47.122                             : :Chapter 16

  • Peso: 7.28 GiB

Sinopsis

‘Kick-Ass’ gira en torno a Dave Lizewski (Aaron Johnson), un estudiante de instituto que pasa desapercibido por todos, aficionado a los cómics, de donde saca un día la idea de convertirse en un superhéroe, aunque no tenga superpoderes, no haya seguido un duro entrenamiento y ni siquiera tenga una razón significativa para ello. Pero la vida de Dave cambiará para siempre cuando se encuentre con un par de locos vigilantes -la terremoto de 11 años Hit Girl (Chloë Moretz) y su padre, Big Daddy (Nicolas Cage)- y forje amistad con otro joven luchador contra el crimen, Red Mist (Christopher Mintz-Plasse). Y cuando todos se tengan que enfrentar al jefe de la mafia local, Frank D’Amico (Mark Strong), sus alianzas y sus verdaderas habilidades serán puestas a prueba.

Ficha técnica

Video trailer de la película

Enlaces de descarga

Rip de Bluray

Descargar Kick-Ass (2010) Full 1080p Latino




Aportes de DPeliculasHDmega la pass es:dpeliculashdmega.org Aportes de CinemaniaHD la pass es:cinemaniahdd.com

Películas relacionadas

  • Si solo pudiera imaginar (2018) Full 1080p Latino

    2018
    Si solo pudiera imaginar (2018) Full 1080p Latino

    5.0 1 h 50 min 2018

    La historia real de la aclamada canción "I Can Only Imagine", la canción cristiana contemporánea más...

    Director: Jon Erwin

    Género: Drama

    Actores: Trace Adkins

  • El Justiciero (2014) Full 1080p Latino

    2014
    El Justiciero (2014) Full 1080p Latino

    4.0 2 h 12 min 2014

    Robert McCall, un antiguo agente de la CIA que lleva ahora una vida tranquila, abandona su retiro para...

    Director: Deirdre Horgan

    Género: Acción

    Actores: Yan Dron

  • James Bond Live and Let Die (1973) Full 1080p Latino

    1973
    James Bond Live and Let Die (1973) Full 1080p Latino

    0.0 2 h 1 min 1973

    En tan sólo veinticuatro horas, tres agentes del servicio secreto británico que investigaban una red...

    Director: Guy Hamilton

    Género: Acción

    Actores: Yaphet Kotto

Comentarios 1
  • rodry - 09 marzo, 2018

    muchas gracias por el aporte lo estaba esperando