Jurassic World: El reino caido (2018) WEB-DL 1080p Latino

4.423 vistas
1 estrella2 estrellas3 estrellas4 estrellas5 estrellas (12 votos, promedio: 4,92 de 5)
Cargando…

Información de Jurassic World: El reino caido (2018) WEB-DL 1080p Latino

Datos de la película

  • Calidad: WEBDL
  • Audio: Español Latino AC3 2.0 iTunes - Ingles AC3 5.1 iTunes
  • Subtitulos: Español Latino SRT- FORZADOS SRT
  • Resolución: 1920x804p
  • Formato: MKV
  • Codec: H.264
  • Encoder: EVO
  • Mediainfo: Clic para Mostrar Datos Ver
  • Format                                   : Matroska
    Format version                           : Version 4 / Version 2
    File size                                : 4.70 GiB
    Duration                                 : 2 h 8 min
    Overall bit rate                         : 5 248 kb/s
    Movie name                               : CinemaniaHDD.net
    Encoded date                             : UTC 2018-09-04 06:08:02
    Writing application                      : mkvmerge v15.0.0 ('Duel with the Devil') 64-bit
    Writing library                          : libebml v1.3.5 + libmatroska v1.4.5

    Video
    ID                                       : 1
    Format                                   : AVC
    Format/Info                              : Advanced Video Codec
    Format profile                           : High@L4
    Format settings                          : CABAC / 5 Ref Frames
    Format settings, CABAC                   : Yes
    Format settings, RefFrames               : 5 frames
    Codec ID                                 : V_MPEG4/ISO/AVC
    Duration                                 : 2 h 8 min
    Bit rate                                 : 4 605 kb/s
    Width                                    : 1 920 pixels
    Height                                   : 804 pixels
    Display aspect ratio                     : 2.40:1
    Frame rate mode                          : Constant
    Frame rate                               : 23.976 (24000/1001) FPS
    Color space                              : YUV
    Chroma subsampling                       : 4:2:0
    Bit depth                                : 8 bits
    Scan type                                : Progressive
    Bits/(Pixel*Frame)                       : 0.124
    Stream size                              : 4.13 GiB (88%)
    Title                                    : Jurassic World El reino caido (2018) WEB-DL 1080p Latino
    Language                                 : English
    Default                                  : Yes
    Forced                                   : No
    Color range                              : Limited
    Color primaries                          : BT.709
    Transfer characteristics                 : BT.709
    Matrix coefficients                      : BT.709

    Audio #1
    ID                                       : 2
    Format                                   : AC-3
    Format/Info                              : Audio Coding 3
    Format settings, Endianness              : Big
    Codec ID                                 : A_AC3
    Duration                                 : 2 h 8 min
    Bit rate mode                            : Constant
    Bit rate                                 : 256 kb/s
    Channel(s)                               : 2 channels
    Channel positions                        : Front: L R
    Sampling rate                            : 48.0 kHz
    Frame rate                               : 31.250 FPS (1536 SPF)
    Bit depth                                : 16 bits
    Compression mode                         : Lossy
    Delay relative to video                  : -42 ms
    Stream size                              : 235 MiB (5%)
    Language                                 : Spanish
    Service kind                             : Complete Main
    Default                                  : Yes
    Forced                                   : No

    Audio #2
    ID                                       : 3
    Format                                   : AC-3
    Format/Info                              : Audio Coding 3
    Format settings, Endianness              : Big
    Codec ID                                 : A_AC3
    Duration                                 : 2 h 8 min
    Bit rate mode                            : Constant
    Bit rate                                 : 384 kb/s
    Channel(s)                               : 6 channels
    Channel positions                        : Front: L C R, Side: L R, LFE
    Sampling rate                            : 48.0 kHz
    Frame rate                               : 31.250 FPS (1536 SPF)
    Bit depth                                : 16 bits
    Compression mode                         : Lossy
    Delay relative to video                  : -42 ms
    Stream size                              : 352 MiB (7%)
    Language                                 : English
    Service kind                             : Complete Main
    Default                                  : No
    Forced                                   : No

    Text #1
    ID                                       : 4
    Format                                   : UTF-8
    Codec ID                                 : S_TEXT/UTF8
    Codec ID/Info                            : UTF-8 Plain Text
    Duration                                 : 1 h 56 min
    Bit rate                                 : 43 b/s
    Count of elements                        : 1294
    Stream size                              : 37.5 KiB (0%)
    Language                                 : Spanish
    Default                                  : No
    Forced                                   : No

    Text #2
    ID                                       : 5
    Format                                   : UTF-8
    Codec ID                                 : S_TEXT/UTF8
    Codec ID/Info                            : UTF-8 Plain Text
    Duration                                 : 1 h 18 min
    Bit rate                                 : 0 b/s
    Count of elements                        : 10
    Stream size                              : 251 Bytes (0%)
    Title                                    : Forzados
    Language                                 : Spanish
    Default                                  : Yes
    Forced                                   : Yes

    Menu
    00:00:00.000                             : en:1
    00:07:14.225                             : en:2
    00:12:02.554                             : en:3
    00:17:18.745                             : en:4
    00:21:18.191                             : en:5
    00:28:50.810                             : en:6
    00:35:05.684                             : en:7
    00:40:52.571                             : en:8
    00:46:33.495                             : en:9
    00:52:05.993                             : en:10
    01:01:00.192                             : en:11
    01:06:51.251                             : en:12
    01:11:08.632                             : en:13
    01:17:22.088                             : en:14
    01:26:56.202                             : en:15
    01:33:02.484                             : en:16
    01:42:56.870                             : en:17
    01:50:02.545                             : en:18
    01:54:57.213                             : en:19
    01:58:38.975                             : en:20

  • Peso: 4.70 GiB

Sinopsis

Jurassic World: Fallen Kingdom es una película de aventuras de ciencia ficción estadounidense de 2018 y la secuela de Jurassic World (2015). Dirigida por JA Bayona , es la quinta entrega de la serie de películas de Jurassic Park , así como la segunda entrega de unatrilogía de Jurassic World planificada. Derek Connolly y eldirector de Jurassic World Colin Trevorrow volvieron como escritores, con Trevorrow y eldirectororiginal de Jurassic Park Steven Spielberg como productores ejecutivos.

Ubicado en la ficticia isla centroamericana de Isla Nublar , frente a la costa del Pacífico de Costa Rica , sigue a Owen Grady y Claire Dearing mientras rescatan a los dinosaurios restantes antes de que una erupción volcánica lo destruya. Chris Pratt , Bryce Dallas Howard , BD Wong y Jeff Goldblum repiten sus papeles de películas anteriores de la serie, con Rafe Spall , Justice Smith , Daniella Pineda , James Cromwell , Toby Jones ,Ted Levine , Isabella Sermon y Geraldine Chaplin se unen al elenco.

La filmación tuvo lugar de febrero a julio de 2017 en el Reino Unido y Hawai . Producido y distribuido por Universal Pictures , Fallen Kingdom se estrenó en Madrid el 21 de mayo de 2018 y fue lanzado internacionalmente a principios de junio de 2018 y en los Estados Unidos el 22 de junio de 2018. La película recaudó más de 1.300 millones de dólares en todo el mundo, convirtiéndose en la tercera Película jurásica para pasar la marca de billón de dólares. Es la tercera película más taquillera de 2018 y la 12 película más taquillera de todos los tiempos. Recibió críticas mixtas de los críticos, que elogiaron la actuación de Pratt, la dirección de Bayona, las imágenes y los “momentos sorprendentemente oscuros”, mientras que otros sugirieron que la serie había seguido su curso, criticando el guión y la falta de innovación.  Se programará una secuela sin título el 11 de junio de 2021, con Trevorrow volviendo para dirigir.

Ficha técnica

Video trailer de la película

Enlaces de descarga

Rip de Bluray

Descargar Jurassic World: El reino caido (2018) WEB-DL 1080p Latino




Aportes de DPeliculasHDmega la pass es:dpeliculashdmega.org Aportes de CinemaniaHD la pass es:cinemaniahdd.com
Guardado en : Acción , Aventura , Ciencia ficción

Películas relacionadas

  • Sicario (2015) Full 1080p Latino

    2015
    Sicario (2015) Full 1080p Latino

    5.0 2h 1m 2015

    En la zona fronteriza que se extiende entre Estados Unidos y México la joven Kate Macer, una idealista...

    Director: Judi Townsend

    Género: Acción

    Actores: Victor Garber

  • Fahrenheit 451 (2018) Full 1080p Latino

    2018
    Fahrenheit 451 (2018) Full 1080p Latino

    5.0 1h 36m 2018

    Michael B. Jordan y Michael Shannon protagonizan esta adaptación de HBO de la clásica novela distópica...

    Director: Ramin Bahrani

    Género: Ciencia ficción

    Actores: Tim Post

Comentarios 3
  • Roberto - 05 septiembre, 2018

    Gracias por la película .para cuando la plateada

    • dpelis - 05 septiembre, 2018

      una o dos semanas

  • Jairo - 04 septiembre, 2018

    Gracias por el gran aporte la esta esperando, suban “Hereditary” por favor hoy salio el Blu Ray, por favor.