John Rambo (2008) Full 1080p Latino

1.478 vistas
1 estrella2 estrellas3 estrellas4 estrellas5 estrellas (1 votos, promedio: 5,00 de 5)
Cargando…

Información de John Rambo (2008) Full 1080p Latino

Datos de la película

  • Calidad: Full 1080p
  • Audio: Español Latino AC3 5.1 DVD - Ingles AC3 5.1 BLURAY
  • Subtitulos: Español Latino PGS
  • Resolución: 1920x1080p
  • Formato: MKV
  • Codec: H.264
  • Encoder: CinemaniaHD
  • Mediainfo: Clic para Mostrar Datos Ver
  • Format                                   : Matroska
    Format version                           : Version 4 / Version 2
    File size                                : 6.36 GiB
    Duration                                 : 1 h 30 min
    Overall bit rate                         : 10.0 Mb/s
    Movie name                               : CinemaniaHDD.com
    Encoded date                             : UTC 2018-01-22 04:49:40 / UTC 2018-01-21T05:25:50Z
    Writing application                      : mkvmerge v15.0.0 ('Duel with the Devil') 64-bit
    Writing library                          : libebml v1.3.5 + libmatroska v1.4.5 / Lavf57.7.2

    Video
    ID                                       : 1
    Format                                   : AVC
    Format/Info                              : Advanced Video Codec
    Format profile                           : High@L4.1
    Format settings                          : CABAC / 4 Ref Frames
    Format settings, CABAC                   : Yes
    Format settings, RefFrames               : 4 frames
    Codec ID                                 : V_MPEG4/ISO/AVC
    Duration                                 : 1 h 30 min
    Bit rate                                 : 8 793 kb/s
    Width                                    : 1 920 pixels
    Height                                   : 1 080 pixels
    Display aspect ratio                     : 16:9
    Frame rate mode                          : Constant
    Frame rate                               : 23.976 (24000/1001) FPS
    Color space                              : YUV
    Chroma subsampling                       : 4:2:0
    Bit depth                                : 8 bits
    Scan type                                : Progressive
    Bits/(Pixel*Frame)                       : 0.177
    Stream size                              : 5.58 GiB (88%)
    Title                                    : John Rambo (2008) Full 1080p Latino
    Writing library                          : x264 core 148 r2708 86b7198
    Encoding settings                        : cabac=1 / ref=4 / deblock=1:0:0 / analyse=0x3:0x133 / me=esa / subme=10 / psy=1 / psy_rd=1.00:0.00 / mixed_ref=1 / me_range=24 / chroma_me=1 / trellis=2 / 8x8dct=1 / cqm=0 / deadzone=21,11 / fast_pskip=1 / chroma_qp_offset=-2 / threads=34 / lookahead_threads=5 / sliced_threads=0 / nr=0 / decimate=1 / interlaced=0 / bluray_compat=0 / constrained_intra=0 / bframes=8 / b_pyramid=2 / b_adapt=2 / b_bias=0 / direct=3 / weightb=1 / open_gop=0 / weightp=2 / keyint=240 / keyint_min=24 / scenecut=40 / intra_refresh=0 / rc_lookahead=60 / rc=crf / mbtree=1 / crf=20.0 / qcomp=0.60 / qpmin=0 / qpmax=69 / qpstep=4 / vbv_maxrate=62500 / vbv_bufsize=78125 / crf_max=0.0 / nal_hrd=none / filler=0 / ip_ratio=1.40 / aq=1:1.00
    Language                                 : English
    Default                                  : Yes
    Forced                                   : No
    Color range                              : Limited
    Color primaries                          : BT.709
    Transfer characteristics                 : BT.709
    Matrix coefficients                      : BT.709
    Statistics Tags Issue                    : mkvmerge v15.0.0 ('Duel with the Devil') 64-bit 2018-01-22 04:49:40 / mkvmerge v15.0.0 ('Duel with the Devil') 64-bit 2018-01-22 04:49:40 / UTC 2018-01-21T05:25:50Z
    FromStats_BitRate                        : 8979926
    FromStats_Duration                       : 01:30:55.450000000
    FromStats_FrameCount                     : 130800
    FromStats_StreamSize                     : 6123692599

    Audio #1
    ID                                       : 2
    Format                                   : AC-3
    Format/Info                              : Audio Coding 3
    Format settings, Endianness              : Big
    Codec ID                                 : A_AC3
    Duration                                 : 1 h 30 min
    Bit rate mode                            : Constant
    Bit rate                                 : 384 kb/s
    Channel(s)                               : 6 channels
    Channel positions                        : Front: L C R, Side: L R, LFE
    Sampling rate                            : 48.0 kHz
    Frame rate                               : 31.250 FPS (1536 SPF)
    Bit depth                                : 16 bits
    Compression mode                         : Lossy
    Stream size                              : 250 MiB (4%)
    Language                                 : Spanish
    Service kind                             : Complete Main
    Default                                  : Yes
    Forced                                   : No
    Statistics Tags Issue                    : mkvmerge v15.0.0 ('Duel with the Devil') 64-bit 2018-01-22 04:49:40 / mkvmerge v15.0.0 ('Duel with the Devil') 64-bit 2018-01-22 04:49:40 / UTC 2018-01-21T05:25:50Z
    FromStats_BitRate                        : 384000
    FromStats_Duration                       : 01:30:55.488000000
    FromStats_FrameCount                     : 170484
    FromStats_StreamSize                     : 261863424

    Audio #2
    ID                                       : 3
    Format                                   : AC-3
    Format/Info                              : Audio Coding 3
    Format settings, Endianness              : Big
    Codec ID                                 : A_AC3
    Duration                                 : 1 h 30 min
    Bit rate mode                            : Constant
    Bit rate                                 : 640 kb/s
    Channel(s)                               : 6 channels
    Channel positions                        : Front: L C R, Side: L R, LFE
    Sampling rate                            : 48.0 kHz
    Frame rate                               : 31.250 FPS (1536 SPF)
    Bit depth                                : 16 bits
    Compression mode                         : Lossy
    Stream size                              : 416 MiB (6%)
    Language                                 : English
    Service kind                             : Complete Main
    Default                                  : No
    Forced                                   : No
    Statistics Tags Issue                    : mkvmerge v15.0.0 ('Duel with the Devil') 64-bit 2018-01-22 04:49:40 / mkvmerge v15.0.0 ('Duel with the Devil') 64-bit 2018-01-22 04:49:40 / UTC 2018-01-21T05:25:50Z
    FromStats_BitRate                        : 640000
    FromStats_Duration                       : 01:30:55.456000000
    FromStats_FrameCount                     : 170483
    FromStats_StreamSize                     : 436436480

    Text #1
    ID                                       : 4
    Format                                   : UTF-8
    Codec ID                                 : S_TEXT/UTF8
    Codec ID/Info                            : UTF-8 Plain Text
    Language                                 : Spanish
    Default                                  : No
    Forced                                   : No
    Statistics Tags Issue                    : mkvmerge v15.0.0 ('Duel with the Devil') 64-bit 2018-01-22 04:49:40 / mkvmerge v15.0.0 ('Duel with the Devil') 64-bit 2018-01-22 04:49:40 / UTC 2018-01-21T05:25:50Z
    FromStats_BitRate                        : 29
    FromStats_Duration                       : 01:20:06.690000000
    FromStats_FrameCount                     : 464
    FromStats_StreamSize                     : 17833

    Text #2
    ID                                       : 5
    Format                                   : PGS
    Muxing mode                              : zlib
    Codec ID                                 : S_HDMV/PGS
    Codec ID/Info                            : Picture based subtitle format used on BDs/HD-DVDs
    Language                                 : Spanish
    Default                                  : No
    Forced                                   : No
    Statistics Tags Issue                    : mkvmerge v15.0.0 ('Duel with the Devil') 64-bit 2018-01-22 04:49:40 / mkvmerge v15.0.0 ('Duel with the Devil') 64-bit 2018-01-22 04:49:40 / UTC 2018-01-21T05:25:50Z
    FromStats_BitRate                        : 26704
    FromStats_Duration                       : 01:20:06.682000000
    FromStats_FrameCount                     : 928
    FromStats_StreamSize                     : 16045004

    Menu
    00:00:00.000                             : :Chapter 1
    00:06:26.094                             : :Chapter 2
    00:10:11.820                             : :Chapter 3
    00:14:18.608                             : :Chapter 4
    00:17:41.227                             : :Chapter 5
    00:21:49.558                             : :Chapter 6
    00:25:40.873                             : :Chapter 7
    00:30:18.400                             : :Chapter 8
    00:34:05.043                             : :Chapter 9
    00:36:21.805                             : :Chapter 10
    00:40:49.989                             : :Chapter 11
    00:45:47.745                             : :Chapter 12
    00:49:02.022                             : :Chapter 13
    00:53:34.211                             : :Chapter 14
    00:58:16.785                             : :Chapter 15
    01:01:38.528                             : :Chapter 16
    01:04:13.183                             : :Chapter 17
    01:08:32.108                             : :Chapter 18
    01:10:52.039                             : :Chapter 19
    01:20:08.345                             : :Chapter 20

  • Peso: 6.36 GiB

Sinopsis

John Rambo, el ex-boina verde con una ajetreada vida marcada por la guerra, vive ahora una solitaria y apacible existencia en la jungla del norte de Tailandia, pescando y cazando cobras para luego venderlas. Todo cambia cuando un grupo de misioneros católicos necesita que les guíe hasta la frontera con Birmania para suministrar medicinas y alimentos a unos refugiados asediados por el ejército birmano, que ha hecho de las torturas y los asesinatos algo habitual. Rambo no tendrá más remedio que volver a involucrarse. Se verá obligado a hacer lo que mejor sabe, porque a pesar suyo lleva la guerra en la sangre.

Ficha técnica

Video trailer de la película

Enlaces de descarga

Rip de Bluray

Descargar John Rambo (2008) Full 1080p Latino




Aportes de DPeliculasHDmega la pass es:dpeliculashdmega.org Aportes de CinemaniaHD la pass es:cinemaniahdd.com

Películas relacionadas

  • Fahrenheit 451 (2018) 1080p Latino

    2018
    Fahrenheit 451 (2018) 1080p Latino

    0.0 1h 36m 2018

    Michael B. Jordan y Michael Shannon protagonizan esta adaptación de HBO de la clásica novela distópica...

    Director: Ramin Bahrani

    Género: 1080p Portada Negra

    Actores: Tim Post

  • Mary Poppins (1964) Full 1080p Latino

    1964
    Mary Poppins (1964) Full 1080p Latino

    5.0 2h 19m 1964

    Reinado de Eduardo VII (1901-1910). Una familia inglesa formada por un padre banquero, una madre sufraguista...

    Director: Robert Stevenson

    Género: Comedia

    Actores: Reta Shaw

  • Siberia (2018) Full 1080p Subtitulado

    2018
    Siberia (2018) Full 1080p Subtitulado

    0.0 1h 44m 2018

    Cuando el socio ruso de un tratante de diamantes norteamericano (Keanu Reaves) desaparece, éste viaja...

    Director: Matthew Ross

    Género: Crimen

    Actores: Vladimir Shklyar

  • Man on a Ledge (2012) Full 1080p Latino

    2012
    Man on a Ledge (2012) Full 1080p Latino

    5.0 1 h 42 min 2012

    Nick Cassidy (Sam Worthington), un antiguo agente de policía, se escapa de la cárcel y se dirige al...

    Director: Melissa Kalbfus

    Género: Acción

    Actores: William Sadler

Comentarios 7
  • Pablo - 29 enero, 2018

    Amigo la acabo de revisar, y esta en ESPAÑOL IBERICO… NO ES ESPAÑO LATINO…
    SI PUDIERAS INCORPORAR EL AUDIO LATINO A LA PELICULA SERIA GENIAL…
    Gracias.

    • Dracarys - 29 enero, 2018

      La Acabo de descargar otra Vez y SI es el Doblaje Latino. No se por que dices que no es?.

  • pluna - 28 enero, 2018

    Gracias por responder… Que raro, la revisaré nuevamente…
    Saludos.

  • pluna - 27 enero, 2018

    La película NO ESTA EN AUDIO LATINO, esta en español gallego…

    • Dracarys - 27 enero, 2018

      Si esta el Latino Ya se reviso varias veces!

  • luis - 27 enero, 2018

    ya no c puede descargar desde google drive con gestor de descargas solucion rapido ps

    • Dracarys - 29 enero, 2018

      tienes mega y 1fichier