John Carter Entre dos mundos (2012) Full 1080p Latino | CinemaniaHD - Descargar Peliculas 1080p Mega Google Drive

John Carter Entre dos mundos (2012) Full 1080p Latino

917 vistas
1 estrella2 estrellas3 estrellas4 estrellas5 estrellas (4 votos, promedio: 4,75 de 5)
Cargando…

Información de John Carter Entre dos mundos (2012) Full 1080p Latino

Datos de la película

  • Calidad: Full 1080p
  • Audio: Español Latino AC3 5.1 BLURAY - Ingles DTS 5.1 BLURAY
  • Subtitulos: Español Latino PGS - Ingles PGS
  • Resolución: 1920x1080p
  • Formato: MKV
  • Codec: H.264
  • Encoder: Dracarys
  • Mediainfo: Clic para Mostrar Datos Ver
  • Format                                   : Matroska
    Format version                           : Version 4 / Version 2
    File size                                : 7.79 GiB
    Duration                                 : 2 h 12 min
    Overall bit rate                         : 8 443 kb/s
    Movie name                               : CinemaniaHDD.net
    Encoded date                             : UTC 2018-08-02 03:24:58 / UTC 2018-07-28T04:45:43Z
    Writing application                      : mkvmerge v15.0.0 ('Duel with the Devil') 64-bit
    Writing library                          : libebml v1.3.5 + libmatroska v1.4.5 / Lavf57.7.2

    Video
    ID                                       : 1
    Format                                   : AVC
    Format/Info                              : Advanced Video Codec
    Format profile                           : High@L4.1
    Format settings                          : CABAC / 4 Ref Frames
    Format settings, CABAC                   : Yes
    Format settings, RefFrames               : 4 frames
    Codec ID                                 : V_MPEG4/ISO/AVC
    Duration                                 : 2 h 12 min
    Bit rate                                 : 6 126 kb/s
    Width                                    : 1 920 pixels
    Height                                   : 1 080 pixels
    Display aspect ratio                     : 16:9
    Frame rate mode                          : Constant
    Frame rate                               : 23.976 (24000/1001) FPS
    Color space                              : YUV
    Chroma subsampling                       : 4:2:0
    Bit depth                                : 8 bits
    Scan type                                : Progressive
    Bits/(Pixel*Frame)                       : 0.123
    Stream size                              : 5.65 GiB (73%)
    Title                                    : John Carter Entre dos mundos (2012) Full 1080p Latino
    Writing library                          : x264 core 148 r2708 86b7198
    Encoding settings                        : cabac=1 / ref=4 / deblock=1:0:0 / analyse=0x3:0x133 / me=esa / subme=10 / psy=1 / psy_rd=1.00:0.00 / mixed_ref=1 / me_range=24 / chroma_me=1 / trellis=2 / 8x8dct=1 / cqm=0 / deadzone=21,11 / fast_pskip=1 / chroma_qp_offset=-2 / threads=34 / lookahead_threads=5 / sliced_threads=0 / nr=0 / decimate=1 / interlaced=0 / bluray_compat=0 / constrained_intra=0 / bframes=8 / b_pyramid=2 / b_adapt=2 / b_bias=0 / direct=3 / weightb=1 / open_gop=0 / weightp=2 / keyint=240 / keyint_min=24 / scenecut=40 / intra_refresh=0 / rc_lookahead=60 / rc=crf / mbtree=1 / crf=20.0 / qcomp=0.60 / qpmin=0 / qpmax=69 / qpstep=4 / vbv_maxrate=62500 / vbv_bufsize=78125 / crf_max=0.0 / nal_hrd=none / filler=0 / ip_ratio=1.40 / aq=1:1.00
    Language                                 : English
    Default                                  : Yes
    Forced                                   : No
    Color range                              : Limited
    Color primaries                          : BT.709
    Transfer characteristics                 : BT.709
    Matrix coefficients                      : BT.709
    Statistics Tags Issue                    : mkvmerge v15.0.0 ('Duel with the Devil') 64-bit 2018-08-02 03:24:58 / mkvmerge v15.0.0 ('Duel with the Devil') 64-bit 2018-08-02 03:24:58 / UTC 2018-07-28T04:45:43Z
    FromStats_BitRate                        : 6269895
    FromStats_Duration                       : 02:12:01.747000000
    FromStats_FrameCount                     : 189932
    FromStats_StreamSize                     : 6208565613

    Audio #1
    ID                                       : 2
    Format                                   : AC-3
    Format/Info                              : Audio Coding 3
    Format settings, Endianness              : Big
    Codec ID                                 : A_AC3
    Duration                                 : 2 h 12 min
    Bit rate mode                            : Constant
    Bit rate                                 : 640 kb/s
    Channel(s)                               : 6 channels
    Channel positions                        : Front: L C R, Side: L R, LFE
    Sampling rate                            : 48.0 kHz
    Frame rate                               : 31.250 FPS (1536 SPF)
    Bit depth                                : 16 bits
    Compression mode                         : Lossy
    Stream size                              : 604 MiB (8%)
    Language                                 : Spanish
    Service kind                             : Complete Main
    Default                                  : Yes
    Forced                                   : No
    Statistics Tags Issue                    : mkvmerge v15.0.0 ('Duel with the Devil') 64-bit 2018-08-02 03:24:58 / mkvmerge v15.0.0 ('Duel with the Devil') 64-bit 2018-08-02 03:24:58 / UTC 2018-07-28T04:45:43Z
    FromStats_BitRate                        : 640000
    FromStats_Duration                       : 02:12:01.792000000
    FromStats_FrameCount                     : 247556
    FromStats_StreamSize                     : 633743360

    Audio #2
    ID                                       : 3
    Format                                   : DTS
    Format/Info                              : Digital Theater Systems
    Mode                                     : 16
    Format settings, Endianness              : Big
    Codec ID                                 : A_DTS
    Duration                                 : 2 h 12 min
    Bit rate mode                            : Constant
    Bit rate                                 : 1 509 kb/s
    Channel(s)                               : 6 channels
    Channel positions                        : Front: L C R, Side: L R, LFE
    Sampling rate                            : 48.0 kHz
    Frame rate                               : 93.750 FPS (512 SPF)
    Bit depth                                : 24 bits
    Compression mode                         : Lossy
    Stream size                              : 1.39 GiB (18%)
    Language                                 : English
    Default                                  : No
    Forced                                   : No
    Statistics Tags Issue                    : mkvmerge v15.0.0 ('Duel with the Devil') 64-bit 2018-08-02 03:24:58 / mkvmerge v15.0.0 ('Duel with the Devil') 64-bit 2018-08-02 03:24:58 / UTC 2018-07-28T04:45:43Z
    FromStats_BitRate                        : 1508999
    FromStats_Duration                       : 02:12:01.739000000
    FromStats_FrameCount                     : 742663
    FromStats_StreamSize                     : 1494237956

    Text #1
    ID                                       : 4
    Format                                   : PGS
    Muxing mode                              : zlib
    Codec ID                                 : S_HDMV/PGS
    Codec ID/Info                            : Picture based subtitle format used on BDs/HD-DVDs
    Language                                 : Spanish
    Default                                  : Yes
    Forced                                   : Yes
    Statistics Tags Issue                    : mkvmerge v15.0.0 ('Duel with the Devil') 64-bit 2018-08-02 03:24:58 / mkvmerge v15.0.0 ('Duel with the Devil') 64-bit 2018-08-02 03:24:58 / UTC 2018-07-28T04:45:43Z
    FromStats_BitRate                        : 1490
    FromStats_Duration                       : 02:01:02.596000000
    FromStats_FrameCount                     : 126
    FromStats_StreamSize                     : 1352900

    Text #2
    ID                                       : 5
    Format                                   : PGS
    Muxing mode                              : zlib
    Codec ID                                 : S_HDMV/PGS
    Codec ID/Info                            : Picture based subtitle format used on BDs/HD-DVDs
    Language                                 : Spanish
    Default                                  : No
    Forced                                   : No
    Statistics Tags Issue                    : mkvmerge v15.0.0 ('Duel with the Devil') 64-bit 2018-08-02 03:24:58 / mkvmerge v15.0.0 ('Duel with the Devil') 64-bit 2018-08-02 03:24:58 / UTC 2018-07-28T04:45:43Z
    FromStats_BitRate                        : 33234
    FromStats_Duration                       : 02:04:44.985000000
    FromStats_FrameCount                     : 2086
    FromStats_StreamSize                     : 31094692

    Text #3
    ID                                       : 6
    Format                                   : PGS
    Muxing mode                              : zlib
    Codec ID                                 : S_HDMV/PGS
    Codec ID/Info                            : Picture based subtitle format used on BDs/HD-DVDs
    Language                                 : English
    Default                                  : No
    Forced                                   : No
    Statistics Tags Issue                    : mkvmerge v15.0.0 ('Duel with the Devil') 64-bit 2018-08-02 03:24:58 / mkvmerge v15.0.0 ('Duel with the Devil') 64-bit 2018-08-02 03:24:58 / UTC 2018-07-28T04:45:43Z
    FromStats_BitRate                        : 23457
    FromStats_Duration                       : 02:02:15.870000000
    FromStats_FrameCount                     : 2500
    FromStats_StreamSize                     : 21510043

    Menu
    00:00:00.000                             : :Chapter 1
    00:04:01.241                             : :Chapter 2
    00:10:22.914                             : :Chapter 3
    00:20:08.791                             : :Chapter 4
    00:27:05.207                             : :Chapter 5
    00:37:29.164                             : :Chapter 6
    00:47:43.569                             : :Chapter 7
    00:58:51.653                             : :Chapter 8
    01:07:42.433                             : :Chapter 9
    01:15:00.871                             : :Chapter 10
    01:22:34.199                             : :Chapter 11
    01:30:29.799                             : :Chapter 12
    01:37:02.066                             : :Chapter 13
    01:46:52.031                             : :Chapter 14
    01:53:48.989                             : :Chapter 15
    02:02:54.534                             : :Chapter 16

  • Peso: 7.79 GiB

Sinopsis

Adaptación de ‘Una princesa de Marte’, la primera novela fantástica de Edgar Rice Burroughs. La película lleva a la gran pantalla una aventura épica que se desarrolla en el devastado planeta Marte, un mundo habitado por tribus guerreras y seres salvajes. John Carter es un veterano de la Guerra Civil norteamericana (1861-1865) que se halla en el planeta Marte, se ve inmerso en una nueva y misteriosa guerra con un extraño ejército de marcianos, entre los que se encuentran Tars Tarkas y la princesa Dejah Thoris.

Ficha técnica

Video trailer de la película

Enlaces de descarga

Rip de Bluray

Descargar John Carter Entre dos mundos (2012) Full 1080p Latino




Aportes de DPeliculasHDmega la pass es:dpeliculashdmega.org Aportes de CinemaniaHD la pass es:cinemaniahdd.com

Películas relacionadas

  • La leyenda del gigante de la montaña (2018) 1080p Latino

    2017
    La leyenda del gigante de la montaña (2018) 1080p Latino

    0.0 2h 0m 2017

    Espen "Ash Lad", un pobre hijo de granjero, se embarca en una peligrosa aventura con sus hermanos para...

    Director: Mikkel Brænne Sandemose

    Género: 1080p Portada Negra

    Actores: Vebjørn Enger

  • La jungla (2017) 1080p Latino

    2017
    La jungla (2017) 1080p Latino

    0.0 1h 55m 2017

    Cuenta la historia real de Yossi Ghinsberg, un joven aventurero que vivió para escribir un bestseller...

    Director: Greg McLean

    Género: 1080p Portada Negra

    Actores: Yasmin Kassim

  • Big Fish & Begonia (2018) NF 1080p Latino

    2016
    Big Fish & Begonia (2018) NF 1080p Latino

    0.0 1h 30m 2016

    En un universo más allá del nuestro, Chun celebra su decimosexto aniversario cumpliendo una tradición...

    Director: Zhang Chun

    Género: Animación

    Actores: Zhang Jie

  • V/H/S: (2014) Full 1080p Subtitulado

    2014
    V/H/S: (2014) Full 1080p Subtitulado

    4.2 1 h 21 min 2014

    Un camión está causando el caos en la calle, atropellando a todo aquel que se cruza en su camino. Mientras...

    Director: Todd Lincoln

    Género: FULL 1080p Plateadas

    Actores: Nick Blanco

Comentarios 1
  • ocpgaiden - 02 agosto, 2018

    gracias por la movie, saludos