James Bond The Man with the Golden Gun (1974) Full 1080p Latino | CinemaniaHD - Descargar Peliculas 1080p Mega Google Drive

James Bond The Man with the Golden Gun (1974) Full 1080p Latino

313 vistas
1 estrella2 estrellas3 estrellas4 estrellas5 estrellas (1 votos, promedio: 5,00 de 5)
Cargando…

Información de James Bond The Man with the Golden Gun (1974) Full 1080p Latino

Datos de la película

  • Calidad: Full 1080p
  • Audio: Español Latino AC3 5.1 BLURAY - Ingles DTS 5.1 BLURAY
  • Subtitulos: Español Latino PGS - Ingles PGS
  • Resolución: 1920x1080p
  • Formato: MKV
  • Codec: H.264
  • Encoder: Dracarys
  • Mediainfo: Clic para Mostrar Datos Ver
  • Format                                   : Matroska
    Format version                           : Version 4 / Version 2
    File size                                : 9.79 GiB
    Duration                                 : 2 h 5 min
    Overall bit rate                         : 11.2 Mb/s
    Movie name                               : CinemaniaHDD.net
    Encoded date                             : UTC 2018-07-20 02:22:17 / UTC 2018-07-17T04:33:12Z
    Writing application                      : mkvmerge v15.0.0 ('Duel with the Devil') 64-bit
    Writing library                          : libebml v1.3.5 + libmatroska v1.4.5 / Lavf57.7.2

    Video
    ID                                       : 1
    Format                                   : AVC
    Format/Info                              : Advanced Video Codec
    Format profile                           : High@L4.1
    Format settings                          : CABAC / 4 Ref Frames
    Format settings, CABAC                   : Yes
    Format settings, RefFrames               : 4 frames
    Codec ID                                 : V_MPEG4/ISO/AVC
    Duration                                 : 2 h 5 min
    Bit rate                                 : 9 016 kb/s
    Width                                    : 1 920 pixels
    Height                                   : 1 080 pixels
    Display aspect ratio                     : 16:9
    Frame rate mode                          : Constant
    Frame rate                               : 23.976 (24000/1001) FPS
    Color space                              : YUV
    Chroma subsampling                       : 4:2:0
    Bit depth                                : 8 bits
    Scan type                                : Progressive
    Bits/(Pixel*Frame)                       : 0.181
    Stream size                              : 7.89 GiB (81%)
    Title                                    : James Bond The Man with the Golden Gun (1974) Full 1080p Latino
    Writing library                          : x264 core 148 r2708 86b7198
    Encoding settings                        : cabac=1 / ref=4 / deblock=1:0:0 / analyse=0x3:0x133 / me=esa / subme=10 / psy=1 / psy_rd=1.00:0.00 / mixed_ref=1 / me_range=24 / chroma_me=1 / trellis=2 / 8x8dct=1 / cqm=0 / deadzone=21,11 / fast_pskip=1 / chroma_qp_offset=-2 / threads=34 / lookahead_threads=5 / sliced_threads=0 / nr=0 / decimate=1 / interlaced=0 / bluray_compat=0 / constrained_intra=0 / bframes=8 / b_pyramid=2 / b_adapt=2 / b_bias=0 / direct=3 / weightb=1 / open_gop=0 / weightp=2 / keyint=240 / keyint_min=24 / scenecut=40 / intra_refresh=0 / rc_lookahead=60 / rc=crf / mbtree=1 / crf=20.0 / qcomp=0.60 / qpmin=0 / qpmax=69 / qpstep=4 / vbv_maxrate=62500 / vbv_bufsize=78125 / crf_max=0.0 / nal_hrd=none / filler=0 / ip_ratio=1.40 / aq=1:1.00
    Language                                 : English
    Default                                  : Yes
    Forced                                   : No
    Color range                              : Limited
    Color primaries                          : BT.709
    Transfer characteristics                 : BT.709
    Matrix coefficients                      : BT.709
    Statistics Tags Issue                    : mkvmerge v15.0.0 ('Duel with the Devil') 64-bit 2018-07-20 02:22:17 / mkvmerge v15.0.0 ('Duel with the Devil') 64-bit 2018-07-20 02:22:17 / UTC 2018-07-17T04:33:12Z
    FromStats_BitRate                        : 9210655
    FromStats_Duration                       : 02:05:13.006000000
    FromStats_FrameCount                     : 180132
    FromStats_StreamSize                     : 8649964105

    Audio #1
    ID                                       : 2
    Format                                   : AC-3
    Format/Info                              : Audio Coding 3
    Format settings, Endianness              : Big
    Codec ID                                 : A_AC3
    Duration                                 : 2 h 5 min
    Bit rate mode                            : Constant
    Bit rate                                 : 448 kb/s
    Channel(s)                               : 6 channels
    Channel positions                        : Front: L C R, Side: L R, LFE
    Sampling rate                            : 48.0 kHz
    Frame rate                               : 31.250 FPS (1536 SPF)
    Bit depth                                : 16 bits
    Compression mode                         : Lossy
    Delay relative to video                  : -21 ms
    Stream size                              : 401 MiB (4%)
    Language                                 : Spanish
    Service kind                             : Complete Main
    Default                                  : Yes
    Forced                                   : No
    Statistics Tags Issue                    : mkvmerge v15.0.0 ('Duel with the Devil') 64-bit 2018-07-20 02:22:17 / mkvmerge v15.0.0 ('Duel with the Devil') 64-bit 2018-07-20 02:22:17 / UTC 2018-07-17T04:33:12Z
    FromStats_BitRate                        : 448000
    FromStats_Duration                       : 02:05:13.024000000
    FromStats_FrameCount                     : 234782
    FromStats_StreamSize                     : 420729344

    Audio #2
    ID                                       : 3
    Format                                   : DTS
    Format/Info                              : Digital Theater Systems
    Mode                                     : 16
    Format settings, Endianness              : Big
    Codec ID                                 : A_DTS
    Duration                                 : 2 h 5 min
    Bit rate mode                            : Constant
    Bit rate                                 : 1 509 kb/s
    Channel(s)                               : 6 channels
    Channel positions                        : Front: L C R, Side: L R, LFE
    Sampling rate                            : 48.0 kHz
    Frame rate                               : 93.750 FPS (512 SPF)
    Bit depth                                : 24 bits
    Compression mode                         : Lossy
    Delay relative to video                  : -21 ms
    Stream size                              : 1.32 GiB (13%)
    Language                                 : English
    Default                                  : No
    Forced                                   : No
    Statistics Tags Issue                    : mkvmerge v15.0.0 ('Duel with the Devil') 64-bit 2018-07-20 02:22:17 / mkvmerge v15.0.0 ('Duel with the Devil') 64-bit 2018-07-20 02:22:17 / UTC 2018-07-17T04:33:12Z
    FromStats_BitRate                        : 1508999
    FromStats_Duration                       : 02:05:13.014000000
    FromStats_FrameCount                     : 704345
    FromStats_StreamSize                     : 1417142140

    Text #1
    ID                                       : 4
    Format                                   : PGS
    Muxing mode                              : zlib
    Codec ID                                 : S_HDMV/PGS
    Codec ID/Info                            : Picture based subtitle format used on BDs/HD-DVDs
    Language                                 : English
    Default                                  : No
    Forced                                   : No
    Statistics Tags Issue                    : mkvmerge v15.0.0 ('Duel with the Devil') 64-bit 2018-07-20 02:22:17 / mkvmerge v15.0.0 ('Duel with the Devil') 64-bit 2018-07-20 02:22:17 / UTC 2018-07-17T04:33:12Z
    FromStats_BitRate                        : 30054
    FromStats_Duration                       : 02:03:09.048000000
    FromStats_FrameCount                     : 2754
    FromStats_StreamSize                     : 27759631

    Text #2
    ID                                       : 5
    Format                                   : PGS
    Muxing mode                              : zlib
    Codec ID                                 : S_HDMV/PGS
    Codec ID/Info                            : Picture based subtitle format used on BDs/HD-DVDs
    Language                                 : Spanish
    Default                                  : No
    Forced                                   : No
    Statistics Tags Issue                    : mkvmerge v15.0.0 ('Duel with the Devil') 64-bit 2018-07-20 02:22:17 / mkvmerge v15.0.0 ('Duel with the Devil') 64-bit 2018-07-20 02:22:17 / UTC 2018-07-17T04:33:12Z
    FromStats_BitRate                        : 37837
    FromStats_Duration                       : 02:02:14.835000000
    FromStats_FrameCount                     : 2126
    FromStats_StreamSize                     : 34691845

    Menu
    00:00:00.000                             : :Chapter 1
    00:08:18.081                             : :Chapter 2
    00:10:49.816                             : :Chapter 3
    00:14:58.773                             : :Chapter 4
    00:19:58.406                             : :Chapter 5
    00:21:31.874                             : :Chapter 6
    00:24:56.745                             : :Chapter 7
    00:28:03.140                             : :Chapter 8
    00:33:17.996                             : :Chapter 9
    00:36:42.575                             : :Chapter 10
    00:39:41.129                             : :Chapter 11
    00:44:04.267                             : :Chapter 12
    00:48:27.988                             : :Chapter 13
    00:51:51.609                             : :Chapter 14
    00:56:46.278                             : :Chapter 15
    00:58:43.311                             : :Chapter 16
    01:03:23.800                             : :Chapter 17
    01:05:25.255                             : :Chapter 18
    01:07:53.486                             : :Chapter 19
    01:14:53.197                             : :Chapter 20
    01:19:22.800                             : :Chapter 21
    01:27:17.232                             : :Chapter 22
    01:31:06.670                             : :Chapter 23
    01:33:48.164                             : :Chapter 24
    01:36:57.395                             : :Chapter 25
    01:42:02.450                             : :Chapter 26
    01:45:31.242                             : :Chapter 27
    01:48:30.212                             : :Chapter 28
    01:52:38.001                             : :Chapter 29
    01:58:54.628                             : :Chapter 30
    02:01:59.729                             : :Chapter 31
    02:03:41.414                             : :Chapter 32

  • Peso: 9.79 GiB

Sinopsis

El superagente británico 007 habrá de vérselas ahora con el más peligroso asesino a sueldo del momento: un hombre llamado Scaramanga, más conocido como el hombre de la pistola de oro, que tratará de deshacerse de Bond con los más sofisticados recursos.

Ficha técnica

Video trailer de la película

Enlaces de descarga

Rip de Bluray

Descargar James Bond The Man with the Golden Gun (1974) Full 1080p Latino




Aportes de DPeliculasHDmega la pass es:dpeliculashdmega.org Aportes de CinemaniaHD la pass es:cinemaniahdd.com

Películas relacionadas

  • La leyenda del gigante de la montaña (2018) 1080p Latino

    2017
    La leyenda del gigante de la montaña (2018) 1080p Latino

    0.0 2h 0m 2017

    Espen "Ash Lad", un pobre hijo de granjero, se embarca en una peligrosa aventura con sus hermanos para...

    Director: Mikkel Brænne Sandemose

    Género: 1080p Portada Negra

    Actores: Vebjørn Enger

  • La jungla (2017) 1080p Latino

    2017
    La jungla (2017) 1080p Latino

    0.0 1h 55m 2017

    Cuenta la historia real de Yossi Ghinsberg, un joven aventurero que vivió para escribir un bestseller...

    Director: Greg McLean

    Género: 1080p Portada Negra

    Actores: Yasmin Kassim

  • Big Fish & Begonia (2018) NF 1080p Latino

    2016
    Big Fish & Begonia (2018) NF 1080p Latino

    0.0 1h 30m 2016

    En un universo más allá del nuestro, Chun celebra su decimosexto aniversario cumpliendo una tradición...

    Director: Zhang Chun

    Género: Animación

    Actores: Zhang Jie

  • V/H/S: (2014) Full 1080p Subtitulado

    2014
    V/H/S: (2014) Full 1080p Subtitulado

    4.2 1 h 21 min 2014

    Un camión está causando el caos en la calle, atropellando a todo aquel que se cruza en su camino. Mientras...

    Director: Todd Lincoln

    Género: FULL 1080p Plateadas

    Actores: Nick Blanco

Comentarios 1
  • ocpgaiden - 20 julio, 2018

    Gracias por la pelicula, saludos