James Bond Moonraker (1979) Full 1080p Latino | CinemaniaHD - Descargar Peliculas 1080p Mega Google Drive

James Bond Moonraker (1979) Full 1080p Latino

339 vistas
1 estrella2 estrellas3 estrellas4 estrellas5 estrellas (Ninguna valoración todavía)
Cargando…

Información de James Bond Moonraker (1979) Full 1080p Latino

Datos de la película

  • Calidad: Full 1080p
  • Audio: Español Latino AC3 5.1 BLURAY - Ingles DTS 5.1 BLURAY
  • Subtitulos: Español Latino PGS - Ingles PGS
  • Resolución: 1920x1080p
  • Formato: MKV
  • Codec: H.264
  • Encoder: Dracarys
  • Mediainfo: Clic para Mostrar Datos Ver
  • Format                                   : Matroska
    Format version                           : Version 4 / Version 2
    File size                                : 8.41 GiB
    Duration                                 : 2 h 6 min
    Overall bit rate                         : 9 514 kb/s
    Movie name                               : CinemaniaHDD.net
    Encoded date                             : UTC 2018-07-25 23:05:47 / UTC 2018-07-17T22:25:24Z
    Writing application                      : mkvmerge v15.0.0 ('Duel with the Devil') 64-bit
    Writing library                          : libebml v1.3.5 + libmatroska v1.4.5 / Lavf57.7.2

    Video
    ID                                       : 1
    Format                                   : AVC
    Format/Info                              : Advanced Video Codec
    Format profile                           : High@L4.1
    Format settings                          : CABAC / 4 Ref Frames
    Format settings, CABAC                   : Yes
    Format settings, RefFrames               : 4 frames
    Codec ID                                 : V_MPEG4/ISO/AVC
    Duration                                 : 2 h 6 min
    Bit rate                                 : 7 368 kb/s
    Width                                    : 1 920 pixels
    Height                                   : 1 080 pixels
    Display aspect ratio                     : 16:9
    Frame rate mode                          : Constant
    Frame rate                               : 23.976 (24000/1001) FPS
    Color space                              : YUV
    Chroma subsampling                       : 4:2:0
    Bit depth                                : 8 bits
    Scan type                                : Progressive
    Bits/(Pixel*Frame)                       : 0.148
    Stream size                              : 6.51 GiB (77%)
    Title                                    : James Bond Moonraker (1979) Full 1080p Latino
    Writing library                          : x264 core 148 r2708 86b7198
    Encoding settings                        : cabac=1 / ref=4 / deblock=1:0:0 / analyse=0x3:0x133 / me=esa / subme=10 / psy=1 / psy_rd=1.00:0.00 / mixed_ref=1 / me_range=24 / chroma_me=1 / trellis=2 / 8x8dct=1 / cqm=0 / deadzone=21,11 / fast_pskip=1 / chroma_qp_offset=-2 / threads=34 / lookahead_threads=5 / sliced_threads=0 / nr=0 / decimate=1 / interlaced=0 / bluray_compat=0 / constrained_intra=0 / bframes=8 / b_pyramid=2 / b_adapt=2 / b_bias=0 / direct=3 / weightb=1 / open_gop=0 / weightp=2 / keyint=240 / keyint_min=24 / scenecut=40 / intra_refresh=0 / rc_lookahead=60 / rc=crf / mbtree=1 / crf=20.0 / qcomp=0.60 / qpmin=0 / qpmax=69 / qpstep=4 / vbv_maxrate=62500 / vbv_bufsize=78125 / crf_max=0.0 / nal_hrd=none / filler=0 / ip_ratio=1.40 / aq=1:1.00
    Language                                 : English
    Default                                  : Yes
    Forced                                   : No
    Color range                              : Limited
    Color primaries                          : BT.709
    Transfer characteristics                 : BT.709
    Matrix coefficients                      : BT.709
    Statistics Tags Issue                    : mkvmerge v15.0.0 ('Duel with the Devil') 64-bit 2018-07-25 23:05:47 / mkvmerge v15.0.0 ('Duel with the Devil') 64-bit 2018-07-25 23:05:47 / UTC 2018-07-17T22:25:24Z
    FromStats_BitRate                        : 7541690
    FromStats_Duration                       : 02:06:28.832000000
    FromStats_FrameCount                     : 181950
    FromStats_StreamSize                     : 7154077514

    Audio #1
    ID                                       : 2
    Format                                   : AC-3
    Format/Info                              : Audio Coding 3
    Format settings, Endianness              : Big
    Codec ID                                 : A_AC3
    Duration                                 : 2 h 6 min
    Bit rate mode                            : Constant
    Bit rate                                 : 448 kb/s
    Channel(s)                               : 6 channels
    Channel positions                        : Front: L C R, Side: L R, LFE
    Sampling rate                            : 48.0 kHz
    Frame rate                               : 31.250 FPS (1536 SPF)
    Bit depth                                : 16 bits
    Compression mode                         : Lossy
    Stream size                              : 405 MiB (5%)
    Language                                 : Spanish
    Service kind                             : Complete Main
    Default                                  : Yes
    Forced                                   : No
    Statistics Tags Issue                    : mkvmerge v15.0.0 ('Duel with the Devil') 64-bit 2018-07-25 23:05:47 / mkvmerge v15.0.0 ('Duel with the Devil') 64-bit 2018-07-25 23:05:47 / UTC 2018-07-17T22:25:24Z
    FromStats_BitRate                        : 448000
    FromStats_Duration                       : 02:06:28.896000000
    FromStats_FrameCount                     : 237153
    FromStats_StreamSize                     : 424978176

    Audio #2
    ID                                       : 3
    Format                                   : DTS
    Format/Info                              : Digital Theater Systems
    Mode                                     : 16
    Format settings, Endianness              : Big
    Codec ID                                 : A_DTS
    Duration                                 : 2 h 6 min
    Bit rate mode                            : Constant
    Bit rate                                 : 1 509 kb/s
    Channel(s)                               : 6 channels
    Channel positions                        : Front: L C R, Side: L R, LFE
    Sampling rate                            : 48.0 kHz
    Frame rate                               : 93.750 FPS (512 SPF)
    Bit depth                                : 24 bits
    Compression mode                         : Lossy
    Stream size                              : 1.33 GiB (16%)
    Language                                 : English
    Default                                  : No
    Forced                                   : No
    Statistics Tags Issue                    : mkvmerge v15.0.0 ('Duel with the Devil') 64-bit 2018-07-25 23:05:47 / mkvmerge v15.0.0 ('Duel with the Devil') 64-bit 2018-07-25 23:05:47 / UTC 2018-07-17T22:25:24Z
    FromStats_BitRate                        : 1509000
    FromStats_Duration                       : 02:06:28.864000000
    FromStats_FrameCount                     : 711456
    FromStats_StreamSize                     : 1431449472

    Text #1
    ID                                       : 4
    Format                                   : PGS
    Muxing mode                              : zlib
    Codec ID                                 : S_HDMV/PGS
    Codec ID/Info                            : Picture based subtitle format used on BDs/HD-DVDs
    Language                                 : English
    Default                                  : No
    Forced                                   : No
    Statistics Tags Issue                    : mkvmerge v15.0.0 ('Duel with the Devil') 64-bit 2018-07-25 23:05:47 / mkvmerge v15.0.0 ('Duel with the Devil') 64-bit 2018-07-25 23:05:47 / UTC 2018-07-17T22:25:24Z
    FromStats_BitRate                        : 23097
    FromStats_Duration                       : 02:05:38.365000000
    FromStats_FrameCount                     : 2044
    FromStats_StreamSize                     : 21764742

    Text #2
    ID                                       : 5
    Format                                   : PGS
    Muxing mode                              : zlib
    Codec ID                                 : S_HDMV/PGS
    Codec ID/Info                            : Picture based subtitle format used on BDs/HD-DVDs
    Language                                 : Spanish
    Default                                  : No
    Forced                                   : No
    Statistics Tags Issue                    : mkvmerge v15.0.0 ('Duel with the Devil') 64-bit 2018-07-25 23:05:47 / mkvmerge v15.0.0 ('Duel with the Devil') 64-bit 2018-07-25 23:05:47 / UTC 2018-07-17T22:25:24Z
    FromStats_BitRate                        : 20416
    FromStats_Duration                       : 02:05:14.799000000
    FromStats_FrameCount                     : 1418
    FromStats_StreamSize                     : 19178211

    Menu
    00:00:00.000                             : :Chapter 1
    00:02:31.401                             : :Chapter 2
    00:05:50.892                             : :Chapter 3
    00:11:25.351                             : :Chapter 4
    00:18:58.554                             : :Chapter 5
    00:24:04.276                             : :Chapter 6
    00:26:06.231                             : :Chapter 7
    00:29:14.336                             : :Chapter 8
    00:32:00.877                             : :Chapter 9
    00:33:42.562                             : :Chapter 10
    00:37:54.314                             : :Chapter 11
    00:41:31.322                             : :Chapter 12
    00:45:41.197                             : :Chapter 13
    00:49:07.153                             : :Chapter 14
    00:56:00.274                             : :Chapter 15
    00:59:30.484                             : :Chapter 16
    01:05:22.252                             : :Chapter 17
    01:10:33.229                             : :Chapter 18
    01:13:00.835                             : :Chapter 19
    01:16:15.071                             : :Chapter 20
    01:18:38.839                             : :Chapter 21
    01:20:36.874                             : :Chapter 22
    01:23:30.047                             : :Chapter 23
    01:27:45.635                             : :Chapter 24
    01:31:30.568                             : :Chapter 25
    01:34:12.272                             : :Chapter 26
    01:38:38.621                             : :Chapter 27
    01:43:14.563                             : :Chapter 28
    01:48:47.980                             : :Chapter 29
    01:53:44.693                             : :Chapter 30
    01:59:23.156                             : :Chapter 31
    02:03:46.961                             : :Chapter 32

  • Peso: 8.41 GiB

Sinopsis

El agente secreto James Bond recibe de sus superiores la orden de localizar el paradero de la nave espacial Moonraker, que ha desaparecido misteriosamente. Sus primeras investigaciones le llevan a seguir la pista del millonario Hugo Drax, constructor de la cápsula. Después de investigar en Venecia y en Río de Janeiro, Bond es capturado por Drax, y descubre que el villano posee una base de lanzamiento para cohetes espaciales, con los que se propone esparcir un gas tóxico que acabe con le vida terrestre, siendo ésta la primera fase de un perverso plan que el agente, ayudado por la Doctora Goodhead, intentará frustrar.

Ficha técnica

Video trailer de la película

Enlaces de descarga

Rip de Bluray

Descargar James Bond Moonraker (1979) Full 1080p Latino




Aportes de DPeliculasHDmega la pass es:dpeliculashdmega.org Aportes de CinemaniaHD la pass es:cinemaniahdd.com

Películas relacionadas

  • Show Dogs (2018) Full 1080p Latino

    2018
    Show Dogs (2018) Full 1080p Latino

    3.0 1 h 30 min 2018

    Un detective encuentra aventuras con su improbable compañero, un policía canino que tiene que esconderse...

    Director: Raja Gosnell

    Género: Comedia

    Actores: Will Arnett

  • Pequeños guerreros (1998) Full 1080p Latino

    1998
    Pequeños guerreros (1998) Full 1080p Latino

    3.0 1 h 49 min 1998

    El Comando Elite está formado por una patrulla de muñecos militares muy arrogantes y agresivos que...

    Director: Joe Dante

    Género: Acción

    Actores: Wendy Schaal

  • No Game no Life Zero (2017) Full 1080p Latino

    2017
    No Game no Life Zero (2017) Full 1080p Latino

    5.0 1 h 47 min 2017

    Seis mil años antes de que Sora y Shiro fuesen un parpadeo en la historia de Disboard, la guerra consumió...

    Director: Atsuko Ishizuka

    Género: Animación

    Actores: Yukari Tamura

  • Jumanji (1995) Full 1080p Latino

    1995
    Jumanji (1995) Full 1080p Latino

    5.0 1 h 44 min 1995

    Alan Parris queda atrapado en un juego de mesa mágico y muy antiguo, Jumanji, durante 25 años. Cuando...

    Director: Lara Fox

    Género: Aventura

    Actores: Tom Woodruff Jr.

  • Action Point (2018) Full 1080p Latino

    2018
    Action Point (2018) Full 1080p Latino

    5.0 1 h 24 min 2018

    Un temerario doble de acción diseña y opera su propio parque temático con sus amigos.

    Director: Tim Kirkby

    Género: Comedia

    Actores: Susan Yeagley

Comentarios 1
  • ocpgaiden - 26 julio, 2018

    gracias por las peliculas de James Bond (Roger Moore), Saludos