James Bond Live and Let Die (1973) Full 1080p Latino | CinemaniaHD - Descargar Peliculas 1080p Mega Google Drive

James Bond Live and Let Die (1973) Full 1080p Latino

286 vistas
1 estrella2 estrellas3 estrellas4 estrellas5 estrellas (Ninguna valoración todavía)
Cargando…

Información de James Bond Live and Let Die (1973) Full 1080p Latino

Datos de la película

  • Calidad: Full 1080p
  • Audio: Español Latino AC3 5.1 BLURAY - Ingles DTS 5.1 BLURAY
  • Subtitulos: Español Latino PGS - Ingles PGS
  • Resolución: 1920x1080p
  • Formato: MKV
  • Codec: H.264
  • Encoder: Dracarys
  • Mediainfo: Clic para Mostrar Datos Ver
  • Format                                   : Matroska
    Format version                           : Version 4 / Version 2
    File size                                : 10.3 GiB
    Duration                                 : 2 h 1 min
    Overall bit rate                         : 12.1 Mb/s
    Movie name                               : CinemaniaHDD.net
    Encoded date                             : UTC 2018-07-20 01:20:19 / UTC 2018-07-16T12:32:30Z
    Writing application                      : mkvmerge v15.0.0 ('Duel with the Devil') 64-bit
    Writing library                          : libebml v1.3.5 + libmatroska v1.4.5 / Lavf57.7.2

    Video
    ID                                       : 1
    Format                                   : AVC
    Format/Info                              : Advanced Video Codec
    Format profile                           : High@L4.1
    Format settings                          : CABAC / 4 Ref Frames
    Format settings, CABAC                   : Yes
    Format settings, RefFrames               : 4 frames
    Codec ID                                 : V_MPEG4/ISO/AVC
    Duration                                 : 2 h 1 min
    Bit rate                                 : 9 940 kb/s
    Width                                    : 1 920 pixels
    Height                                   : 1 080 pixels
    Display aspect ratio                     : 16:9
    Frame rate mode                          : Constant
    Frame rate                               : 23.976 (24000/1001) FPS
    Color space                              : YUV
    Chroma subsampling                       : 4:2:0
    Bit depth                                : 8 bits
    Scan type                                : Progressive
    Bits/(Pixel*Frame)                       : 0.200
    Stream size                              : 8.45 GiB (82%)
    Title                                    : James Bond Live and Let Die (1973) Full 1080p Latino
    Writing library                          : x264 core 148 r2708 86b7198
    Encoding settings                        : cabac=1 / ref=4 / deblock=1:0:0 / analyse=0x3:0x133 / me=esa / subme=10 / psy=1 / psy_rd=1.00:0.00 / mixed_ref=1 / me_range=24 / chroma_me=1 / trellis=2 / 8x8dct=1 / cqm=0 / deadzone=21,11 / fast_pskip=1 / chroma_qp_offset=-2 / threads=34 / lookahead_threads=5 / sliced_threads=0 / nr=0 / decimate=1 / interlaced=0 / bluray_compat=0 / constrained_intra=0 / bframes=8 / b_pyramid=2 / b_adapt=2 / b_bias=0 / direct=3 / weightb=1 / open_gop=0 / weightp=2 / keyint=240 / keyint_min=24 / scenecut=40 / intra_refresh=0 / rc_lookahead=60 / rc=crf / mbtree=1 / crf=20.0 / qcomp=0.60 / qpmin=0 / qpmax=69 / qpstep=4 / vbv_maxrate=62500 / vbv_bufsize=78125 / crf_max=0.0 / nal_hrd=none / filler=0 / ip_ratio=1.40 / aq=1:1.00
    Language                                 : English
    Default                                  : Yes
    Forced                                   : No
    Color range                              : Limited
    Color primaries                          : BT.709
    Transfer characteristics                 : BT.709
    Matrix coefficients                      : BT.709
    Statistics Tags Issue                    : mkvmerge v15.0.0 ('Duel with the Devil') 64-bit 2018-07-20 01:20:19 / mkvmerge v15.0.0 ('Duel with the Devil') 64-bit 2018-07-20 01:20:19 / UTC 2018-07-16T12:32:30Z
    FromStats_BitRate                        : 10165932
    FromStats_Duration                       : 02:01:38.208000000
    FromStats_FrameCount                     : 174982
    FromStats_StreamSize                     : 9274136666

    Audio #1
    ID                                       : 2
    Format                                   : AC-3
    Format/Info                              : Audio Coding 3
    Format settings, Endianness              : Big
    Codec ID                                 : A_AC3
    Duration                                 : 2 h 1 min
    Bit rate mode                            : Constant
    Bit rate                                 : 448 kb/s
    Channel(s)                               : 6 channels
    Channel positions                        : Front: L C R, Side: L R, LFE
    Sampling rate                            : 48.0 kHz
    Frame rate                               : 31.250 FPS (1536 SPF)
    Bit depth                                : 16 bits
    Compression mode                         : Lossy
    Stream size                              : 390 MiB (4%)
    Language                                 : Spanish
    Service kind                             : Complete Main
    Default                                  : Yes
    Forced                                   : No
    Statistics Tags Issue                    : mkvmerge v15.0.0 ('Duel with the Devil') 64-bit 2018-07-20 01:20:19 / mkvmerge v15.0.0 ('Duel with the Devil') 64-bit 2018-07-20 01:20:19 / UTC 2018-07-16T12:32:30Z
    FromStats_BitRate                        : 448000
    FromStats_Duration                       : 02:01:38.272000000
    FromStats_FrameCount                     : 228071
    FromStats_StreamSize                     : 408703232

    Audio #2
    ID                                       : 3
    Format                                   : DTS
    Format/Info                              : Digital Theater Systems
    Mode                                     : 16
    Format settings, Endianness              : Big
    Codec ID                                 : A_DTS
    Duration                                 : 2 h 1 min
    Bit rate mode                            : Constant
    Bit rate                                 : 1 509 kb/s
    Channel(s)                               : 6 channels
    Channel positions                        : Front: L C R, Side: L R, LFE
    Sampling rate                            : 48.0 kHz
    Frame rate                               : 93.750 FPS (512 SPF)
    Bit depth                                : 24 bits
    Compression mode                         : Lossy
    Stream size                              : 1.28 GiB (12%)
    Language                                 : English
    Default                                  : No
    Forced                                   : No
    Statistics Tags Issue                    : mkvmerge v15.0.0 ('Duel with the Devil') 64-bit 2018-07-20 01:20:19 / mkvmerge v15.0.0 ('Duel with the Devil') 64-bit 2018-07-20 01:20:19 / UTC 2018-07-16T12:32:30Z
    FromStats_BitRate                        : 1509000
    FromStats_Duration                       : 02:01:38.240000000
    FromStats_FrameCount                     : 684210
    FromStats_StreamSize                     : 1376630520

    Text #1
    ID                                       : 4
    Format                                   : PGS
    Muxing mode                              : zlib
    Codec ID                                 : S_HDMV/PGS
    Codec ID/Info                            : Picture based subtitle format used on BDs/HD-DVDs
    Language                                 : English
    Default                                  : No
    Forced                                   : No
    Statistics Tags Issue                    : mkvmerge v15.0.0 ('Duel with the Devil') 64-bit 2018-07-20 01:20:19 / mkvmerge v15.0.0 ('Duel with the Devil') 64-bit 2018-07-20 01:20:19 / UTC 2018-07-16T12:32:30Z
    FromStats_BitRate                        : 24931
    FromStats_Duration                       : 02:00:39.357000000
    FromStats_FrameCount                     : 1943
    FromStats_StreamSize                     : 22561040

    Text #2
    ID                                       : 5
    Format                                   : PGS
    Muxing mode                              : zlib
    Codec ID                                 : S_HDMV/PGS
    Codec ID/Info                            : Picture based subtitle format used on BDs/HD-DVDs
    Language                                 : Spanish
    Default                                  : No
    Forced                                   : No
    Statistics Tags Issue                    : mkvmerge v15.0.0 ('Duel with the Devil') 64-bit 2018-07-20 01:20:19 / mkvmerge v15.0.0 ('Duel with the Devil') 64-bit 2018-07-20 01:20:19 / UTC 2018-07-16T12:32:30Z
    FromStats_BitRate                        : 20266
    FromStats_Duration                       : 02:00:35.854000000
    FromStats_FrameCount                     : 1758
    FromStats_StreamSize                     : 18330494

    Text #3
    ID                                       : 6
    Format                                   : PGS
    Muxing mode                              : zlib
    Codec ID                                 : S_HDMV/PGS
    Codec ID/Info                            : Picture based subtitle format used on BDs/HD-DVDs
    Title                                    : Forzados
    Language                                 : Spanish
    Default                                  : Yes
    Forced                                   : Yes
    Statistics Tags Issue                    : mkvmerge v15.0.0 ('Duel with the Devil') 64-bit 2018-07-20 01:20:19 / mkvmerge v15.0.0 ('Duel with the Devil') 64-bit 2018-07-20 01:20:19 / UTC 2018-07-16T12:32:30Z
    FromStats_BitRate                        : 241
    FromStats_Duration                       : 02:00:05.866000000
    FromStats_FrameCount                     : 22
    FromStats_StreamSize                     : 217449

    Menu
    00:00:00.000                             : :Chapter 1
    00:04:56.129                             : :Chapter 2
    00:07:37.874                             : :Chapter 3
    00:12:31.167                             : :Chapter 4
    00:17:57.410                             : :Chapter 5
    00:22:36.397                             : :Chapter 6
    00:26:31.381                             : :Chapter 7
    00:28:49.853                             : :Chapter 8
    00:30:33.582                             : :Chapter 9
    00:34:46.126                             : :Chapter 10
    00:38:19.297                             : :Chapter 11
    00:41:54.887                             : :Chapter 12
    00:46:54.061                             : :Chapter 13
    00:51:06.939                             : :Chapter 14
    00:54:51.497                             : :Chapter 15
    00:57:18.727                             : :Chapter 16
    01:03:02.279                             : :Chapter 17
    01:04:58.812                             : :Chapter 18
    01:07:06.397                             : :Chapter 19
    01:10:47.702                             : :Chapter 20
    01:14:53.614                             : :Chapter 21
    01:19:29.223                             : :Chapter 22
    01:26:17.714                             : :Chapter 23
    01:31:55.510                             : :Chapter 24
    01:35:48.826                             : :Chapter 25
    01:40:27.522                             : :Chapter 26
    01:44:50.284                             : :Chapter 27
    01:47:40.746                             : :Chapter 28
    01:49:41.033                             : :Chapter 29
    01:55:33.927                             : :Chapter 30
    01:56:30.817                             : :Chapter 31
    02:00:05.990                             : :Chapter 32

  • Peso: 10.3 GiB

Sinopsis

En tan sólo veinticuatro horas, tres agentes del servicio secreto británico que investigaban una red de tráfico de drogas aparecen asesinados en extrañas circunstancias. Todas las pistas conducen a Mr. Big, y a un diplomático llamado Katanga. El agente 007, James Bond, es enviado a Nueva York para investigar al enigmático personaje.

Ficha técnica

Video trailer de la película

Enlaces de descarga

Rip de Bluray

Descargar James Bond Live and Let Die (1973) Full 1080p Latino




Aportes de DPeliculasHDmega la pass es:dpeliculashdmega.org Aportes de CinemaniaHD la pass es:cinemaniahdd.com

Películas relacionadas

  • La leyenda del gigante de la montaña (2018) 1080p Latino

    2017
    La leyenda del gigante de la montaña (2018) 1080p Latino

    0.0 2h 0m 2017

    Espen "Ash Lad", un pobre hijo de granjero, se embarca en una peligrosa aventura con sus hermanos para...

    Director: Mikkel Brænne Sandemose

    Género: 1080p Portada Negra

    Actores: Vebjørn Enger

  • La jungla (2017) 1080p Latino

    2017
    La jungla (2017) 1080p Latino

    0.0 1h 55m 2017

    Cuenta la historia real de Yossi Ghinsberg, un joven aventurero que vivió para escribir un bestseller...

    Director: Greg McLean

    Género: 1080p Portada Negra

    Actores: Yasmin Kassim

  • Big Fish & Begonia (2018) NF 1080p Latino

    2016
    Big Fish & Begonia (2018) NF 1080p Latino

    0.0 1h 30m 2016

    En un universo más allá del nuestro, Chun celebra su decimosexto aniversario cumpliendo una tradición...

    Director: Zhang Chun

    Género: Animación

    Actores: Zhang Jie

  • V/H/S: (2014) Full 1080p Subtitulado

    2014
    V/H/S: (2014) Full 1080p Subtitulado

    4.2 1 h 21 min 2014

    Un camión está causando el caos en la calle, atropellando a todo aquel que se cruza en su camino. Mientras...

    Director: Todd Lincoln

    Género: FULL 1080p Plateadas

    Actores: Nick Blanco

Comentarios 1
  • ocpgaiden - 20 julio, 2018

    Gracias por las peliculas de James Bond {Roger Moore} Saludos