James Bond Licence to Kill (1989) Full 1080p Latino | CinemaniaHD - Descargar Peliculas 1080p Mega Google Drive

James Bond Licence to Kill (1989) Full 1080p Latino

277 vistas
1 estrella2 estrellas3 estrellas4 estrellas5 estrellas (Ninguna valoración todavía)
Cargando…

Información de James Bond Licence to Kill (1989) Full 1080p Latino

Datos de la película

  • Calidad: Full 1080p
  • Audio: Español Latino AC3 5.1 BLURAY - Ingles DTS 5.1 BLURAY
  • Subtitulos: Español Latino PGS - Ingles PGS
  • Resolución: 1920x1080p
  • Formato: MKV
  • Codec: H.264
  • Encoder: Dracarys
  • Mediainfo: Clic para Mostrar Datos Ver
  • Format                                   : Matroska
    Format version                           : Version 4 / Version 2
    File size                                : 13.3 GiB
    Duration                                 : 2 h 13 min
    Overall bit rate                         : 14.2 Mb/s
    Movie name                               : CinemaniaHDD.net
    Encoded date                             : UTC 2018-08-01 19:04:42 / UTC 2018-07-18T17:50:25Z
    Writing application                      : mkvmerge v15.0.0 ('Duel with the Devil') 64-bit
    Writing library                          : libebml v1.3.5 + libmatroska v1.4.5 / Lavf57.7.2

    Video
    ID                                       : 1
    Format                                   : AVC
    Format/Info                              : Advanced Video Codec
    Format profile                           : High@L4.1
    Format settings                          : CABAC / 4 Ref Frames
    Format settings, CABAC                   : Yes
    Format settings, RefFrames               : 4 frames
    Codec ID                                 : V_MPEG4/ISO/AVC
    Duration                                 : 2 h 13 min
    Bit rate                                 : 12.0 Mb/s
    Width                                    : 1 920 pixels
    Height                                   : 1 080 pixels
    Display aspect ratio                     : 16:9
    Frame rate mode                          : Constant
    Frame rate                               : 23.976 (24000/1001) FPS
    Color space                              : YUV
    Chroma subsampling                       : 4:2:0
    Bit depth                                : 8 bits
    Scan type                                : Progressive
    Bits/(Pixel*Frame)                       : 0.241
    Stream size                              : 11.2 GiB (84%)
    Title                                    : James Bond Licence to Kill (1989) Full 1080p Latino
    Writing library                          : x264 core 148 r2708 86b7198
    Encoding settings                        : cabac=1 / ref=4 / deblock=1:0:0 / analyse=0x3:0x133 / me=esa / subme=10 / psy=1 / psy_rd=1.00:0.00 / mixed_ref=1 / me_range=24 / chroma_me=1 / trellis=2 / 8x8dct=1 / cqm=0 / deadzone=21,11 / fast_pskip=1 / chroma_qp_offset=-2 / threads=34 / lookahead_threads=5 / sliced_threads=0 / nr=0 / decimate=1 / interlaced=0 / bluray_compat=0 / constrained_intra=0 / bframes=8 / b_pyramid=2 / b_adapt=2 / b_bias=0 / direct=3 / weightb=1 / open_gop=0 / weightp=2 / keyint=240 / keyint_min=24 / scenecut=40 / intra_refresh=0 / rc_lookahead=60 / rc=crf / mbtree=1 / crf=20.0 / qcomp=0.60 / qpmin=0 / qpmax=69 / qpstep=4 / vbv_maxrate=62500 / vbv_bufsize=78125 / crf_max=0.0 / nal_hrd=none / filler=0 / ip_ratio=1.40 / aq=1:1.00
    Language                                 : English
    Default                                  : Yes
    Forced                                   : No
    Color range                              : Limited
    Color primaries                          : BT.709
    Transfer characteristics                 : BT.709
    Matrix coefficients                      : BT.709
    Statistics Tags Issue                    : mkvmerge v15.0.0 ('Duel with the Devil') 64-bit 2018-08-01 19:04:42 / mkvmerge v15.0.0 ('Duel with the Devil') 64-bit 2018-08-01 19:04:42 / UTC 2018-07-18T17:50:25Z
    FromStats_BitRate                        : 12245158
    FromStats_Duration                       : 02:13:20.993000000
    FromStats_FrameCount                     : 191832
    FromStats_StreamSize                     : 12246678884

    Audio #1
    ID                                       : 2
    Format                                   : AC-3
    Format/Info                              : Audio Coding 3
    Format settings, Endianness              : Big
    Codec ID                                 : A_AC3
    Duration                                 : 2 h 13 min
    Bit rate mode                            : Constant
    Bit rate                                 : 448 kb/s
    Channel(s)                               : 6 channels
    Channel positions                        : Front: L C R, Side: L R, LFE
    Sampling rate                            : 48.0 kHz
    Frame rate                               : 31.250 FPS (1536 SPF)
    Bit depth                                : 16 bits
    Compression mode                         : Lossy
    Stream size                              : 427 MiB (3%)
    Language                                 : Spanish
    Service kind                             : Complete Main
    Default                                  : Yes
    Forced                                   : No
    Statistics Tags Issue                    : mkvmerge v15.0.0 ('Duel with the Devil') 64-bit 2018-08-01 19:04:42 / mkvmerge v15.0.0 ('Duel with the Devil') 64-bit 2018-08-01 19:04:42 / UTC 2018-07-18T17:50:25Z
    FromStats_BitRate                        : 448000
    FromStats_Duration                       : 02:13:21.056000000
    FromStats_FrameCount                     : 250033
    FromStats_StreamSize                     : 448059136

    Audio #2
    ID                                       : 3
    Format                                   : DTS
    Format/Info                              : Digital Theater Systems
    Mode                                     : 16
    Format settings, Endianness              : Big
    Codec ID                                 : A_DTS
    Duration                                 : 2 h 13 min
    Bit rate mode                            : Constant
    Bit rate                                 : 1 509 kb/s
    Channel(s)                               : 6 channels
    Channel positions                        : Front: L C R, Side: L R, LFE
    Sampling rate                            : 48.0 kHz
    Frame rate                               : 93.750 FPS (512 SPF)
    Bit depth                                : 24 bits
    Compression mode                         : Lossy
    Stream size                              : 1.41 GiB (11%)
    Language                                 : English
    Default                                  : No
    Forced                                   : No
    Statistics Tags Issue                    : mkvmerge v15.0.0 ('Duel with the Devil') 64-bit 2018-08-01 19:04:42 / mkvmerge v15.0.0 ('Duel with the Devil') 64-bit 2018-08-01 19:04:42 / UTC 2018-07-18T17:50:25Z
    FromStats_BitRate                        : 1508999
    FromStats_Duration                       : 02:13:21.035000000
    FromStats_FrameCount                     : 750097
    FromStats_StreamSize                     : 1509195164

    Text #1
    ID                                       : 4
    Format                                   : PGS
    Muxing mode                              : zlib
    Codec ID                                 : S_HDMV/PGS
    Codec ID/Info                            : Picture based subtitle format used on BDs/HD-DVDs
    Language                                 : English
    Default                                  : No
    Forced                                   : No
    Statistics Tags Issue                    : mkvmerge v15.0.0 ('Duel with the Devil') 64-bit 2018-08-01 19:04:42 / mkvmerge v15.0.0 ('Duel with the Devil') 64-bit 2018-08-01 19:04:42 / UTC 2018-07-18T17:50:25Z
    FromStats_BitRate                        : 29100
    FromStats_Duration                       : 02:12:34.447000000
    FromStats_FrameCount                     : 2702
    FromStats_StreamSize                     : 28935152

    Text #2
    ID                                       : 5
    Format                                   : PGS
    Muxing mode                              : zlib
    Codec ID                                 : S_HDMV/PGS
    Codec ID/Info                            : Picture based subtitle format used on BDs/HD-DVDs
    Language                                 : Spanish
    Default                                  : No
    Forced                                   : No
    Statistics Tags Issue                    : mkvmerge v15.0.0 ('Duel with the Devil') 64-bit 2018-08-01 19:04:42 / mkvmerge v15.0.0 ('Duel with the Devil') 64-bit 2018-08-01 19:04:42 / UTC 2018-07-18T17:50:25Z
    FromStats_BitRate                        : 34578
    FromStats_Duration                       : 02:09:36.652000000
    FromStats_FrameCount                     : 2138
    FromStats_StreamSize                     : 33612693

    Menu
    00:00:00.000                             : :Chapter 1
    00:08:37.559                             : :Chapter 2
    00:11:26.728                             : :Chapter 3
    00:15:45.069                             : :Chapter 4
    00:18:28.316                             : :Chapter 5
    00:27:32.401                             : :Chapter 6
    00:31:28.345                             : :Chapter 7
    00:32:52.304                             : :Chapter 8
    00:36:16.257                             : :Chapter 9
    00:40:44.984                             : :Chapter 10
    00:43:33.277                             : :Chapter 11
    00:46:12.979                             : :Chapter 12
    00:47:42.485                             : :Chapter 13
    00:50:38.953                             : :Chapter 14
    00:54:59.922                             : :Chapter 15
    00:57:39.539                             : :Chapter 16
    01:02:05.972                             : :Chapter 17
    01:11:29.744                             : :Chapter 18
    01:14:45.815                             : :Chapter 19
    01:20:23.819                             : :Chapter 20
    01:25:41.345                             : :Chapter 21
    01:30:40.185                             : :Chapter 22
    01:32:34.466                             : :Chapter 23
    01:38:33.408                             : :Chapter 24
    01:42:53.668                             : :Chapter 25
    01:49:44.369                             : :Chapter 26
    01:54:54.388                             : :Chapter 27
    01:56:46.500                             : :Chapter 28
    02:01:21.649                             : :Chapter 29
    02:05:32.734                             : :Chapter 30
    02:08:31.537                             : :Chapter 31
    02:10:36.746                             : :Chapter 32

  • Peso: 13.3 GiB

Sinopsis

El agente 007 a la caza y captura de un peligroso narcotraficante latinoamericano, con implicaciones personales de por medio: el capo de la droga mató a un amigo suyo, y Bond desea vengarse.

Ficha técnica

Video trailer de la película

Enlaces de descarga

Rip de Bluray

Descargar James Bond Licence to Kill (1989) Full 1080p Latino




Aportes de DPeliculasHDmega la pass es:dpeliculashdmega.org Aportes de CinemaniaHD la pass es:cinemaniahdd.com

Películas relacionadas

  • Show Dogs (2018) Full 1080p Latino

    2018
    Show Dogs (2018) Full 1080p Latino

    3.0 1 h 30 min 2018

    Un detective encuentra aventuras con su improbable compañero, un policía canino que tiene que esconderse...

    Director: Raja Gosnell

    Género: Comedia

    Actores: Will Arnett

  • Pequeños guerreros (1998) Full 1080p Latino

    1998
    Pequeños guerreros (1998) Full 1080p Latino

    3.0 1 h 49 min 1998

    El Comando Elite está formado por una patrulla de muñecos militares muy arrogantes y agresivos que...

    Director: Joe Dante

    Género: Acción

    Actores: Wendy Schaal

  • No Game no Life Zero (2017) Full 1080p Latino

    2017
    No Game no Life Zero (2017) Full 1080p Latino

    5.0 1 h 47 min 2017

    Seis mil años antes de que Sora y Shiro fuesen un parpadeo en la historia de Disboard, la guerra consumió...

    Director: Atsuko Ishizuka

    Género: Animación

    Actores: Yukari Tamura

  • Jumanji (1995) Full 1080p Latino

    1995
    Jumanji (1995) Full 1080p Latino

    5.0 1 h 44 min 1995

    Alan Parris queda atrapado en un juego de mesa mágico y muy antiguo, Jumanji, durante 25 años. Cuando...

    Director: Lara Fox

    Género: Aventura

    Actores: Tom Woodruff Jr.

  • Action Point (2018) Full 1080p Latino

    2018
    Action Point (2018) Full 1080p Latino

    5.0 1 h 24 min 2018

    Un temerario doble de acción diseña y opera su propio parque temático con sus amigos.

    Director: Tim Kirkby

    Género: Comedia

    Actores: Susan Yeagley

Comentarios 1
  • ocpgaiden - 02 agosto, 2018

    Gracias por 007 Licencia para matar, saludos