James Bond Goldfinger (1964) Full 1080p Latino | CinemaniaHD - Descargar Peliculas 1080p Mega Google Drive

James Bond Goldfinger (1964) Full 1080p Latino

361 vistas
1 estrella2 estrellas3 estrellas4 estrellas5 estrellas (Ninguna valoración todavía)
Cargando…

Información de James Bond Goldfinger (1964) Full 1080p Latino

Datos de la película

  • Calidad: Full 1080p
  • Audio: Español Latino AC3 5.1 BLURAY - Ingles DTS 5.1 BLURAY
  • Subtitulos: Español Latino PGS - Ingles PGS
  • Resolución: 1920x1080p
  • Formato: MKV
  • Codec: H.264
  • Encoder: Dracarys
  • Mediainfo: Clic para Mostrar Datos Ver
  • Format                                   : Matroska
    Format version                           : Version 4 / Version 2
    File size                                : 11.4 GiB
    Duration                                 : 1 h 50 min
    Overall bit rate                         : 14.9 Mb/s
    Movie name                               : CinemaniaHDD.net
    Encoded date                             : UTC 2018-07-19 22:27:24 / UTC 2018-07-14T23:00:56Z
    Writing application                      : mkvmerge v15.0.0 ('Duel with the Devil') 64-bit
    Writing library                          : libebml v1.3.5 + libmatroska v1.4.5 / Lavf57.7.2

    Video
    ID                                       : 1
    Format                                   : AVC
    Format/Info                              : Advanced Video Codec
    Format profile                           : High@L4.1
    Format settings                          : CABAC / 4 Ref Frames
    Format settings, CABAC                   : Yes
    Format settings, RefFrames               : 4 frames
    Codec ID                                 : V_MPEG4/ISO/AVC
    Duration                                 : 1 h 50 min
    Bit rate                                 : 12.6 Mb/s
    Width                                    : 1 920 pixels
    Height                                   : 1 080 pixels
    Display aspect ratio                     : 16:9
    Frame rate mode                          : Constant
    Frame rate                               : 23.976 (24000/1001) FPS
    Color space                              : YUV
    Chroma subsampling                       : 4:2:0
    Bit depth                                : 8 bits
    Scan type                                : Progressive
    Bits/(Pixel*Frame)                       : 0.254
    Stream size                              : 9.69 GiB (85%)
    Title                                    : James Bond Goldfinger (1964) Full 1080p Latino
    Writing library                          : x264 core 148 r2708 86b7198
    Encoding settings                        : cabac=1 / ref=4 / deblock=1:0:0 / analyse=0x3:0x133 / me=esa / subme=10 / psy=1 / psy_rd=1.00:0.00 / mixed_ref=1 / me_range=24 / chroma_me=1 / trellis=2 / 8x8dct=1 / cqm=0 / deadzone=21,11 / fast_pskip=1 / chroma_qp_offset=-2 / threads=34 / lookahead_threads=5 / sliced_threads=0 / nr=0 / decimate=1 / interlaced=0 / bluray_compat=0 / constrained_intra=0 / bframes=8 / b_pyramid=2 / b_adapt=2 / b_bias=0 / direct=3 / weightb=1 / open_gop=0 / weightp=2 / keyint=240 / keyint_min=24 / scenecut=40 / intra_refresh=0 / rc_lookahead=60 / rc=crf / mbtree=1 / crf=20.0 / qcomp=0.60 / qpmin=0 / qpmax=69 / qpstep=4 / vbv_maxrate=62500 / vbv_bufsize=78125 / crf_max=0.0 / nal_hrd=none / filler=0 / ip_ratio=1.40 / aq=1:1.00
    Language                                 : English
    Default                                  : Yes
    Forced                                   : No
    Color range                              : Limited
    Color primaries                          : BT.709
    Transfer characteristics                 : BT.709
    Matrix coefficients                      : BT.709
    Statistics Tags Issue                    : mkvmerge v15.0.0 ('Duel with the Devil') 64-bit 2018-07-19 22:27:24 / mkvmerge v15.0.0 ('Duel with the Devil') 64-bit 2018-07-19 22:27:24 / UTC 2018-07-14T23:00:56Z
    FromStats_BitRate                        : 12871190
    FromStats_Duration                       : 01:50:01.137000000
    FromStats_FrameCount                     : 158269
    FromStats_StreamSize                     : 10620561529

    Audio #1
    ID                                       : 2
    Format                                   : AC-3
    Format/Info                              : Audio Coding 3
    Format settings, Endianness              : Big
    Codec ID                                 : A_AC3
    Duration                                 : 1 h 50 min
    Bit rate mode                            : Constant
    Bit rate                                 : 448 kb/s
    Channel(s)                               : 6 channels
    Channel positions                        : Front: L C R, Side: L R, LFE
    Sampling rate                            : 48.0 kHz
    Frame rate                               : 31.250 FPS (1536 SPF)
    Bit depth                                : 16 bits
    Compression mode                         : Lossy
    Stream size                              : 353 MiB (3%)
    Language                                 : Spanish
    Service kind                             : Complete Main
    Default                                  : Yes
    Forced                                   : No
    Statistics Tags Issue                    : mkvmerge v15.0.0 ('Duel with the Devil') 64-bit 2018-07-19 22:27:24 / mkvmerge v15.0.0 ('Duel with the Devil') 64-bit 2018-07-19 22:27:24 / UTC 2018-07-14T23:00:56Z
    FromStats_BitRate                        : 448000
    FromStats_Duration                       : 01:50:01.184000000
    FromStats_FrameCount                     : 206287
    FromStats_StreamSize                     : 369666304

    Audio #2
    ID                                       : 3
    Format                                   : DTS
    Format/Info                              : Digital Theater Systems
    Mode                                     : 16
    Format settings, Endianness              : Big
    Codec ID                                 : A_DTS
    Duration                                 : 1 h 50 min
    Bit rate mode                            : Constant
    Bit rate                                 : 1 509 kb/s
    Channel(s)                               : 6 channels
    Channel positions                        : Front: L C R, Side: L R, LFE
    Sampling rate                            : 48.0 kHz
    Frame rate                               : 93.750 FPS (512 SPF)
    Bit depth                                : 24 bits
    Compression mode                         : Lossy
    Stream size                              : 1.16 GiB (10%)
    Language                                 : English
    Default                                  : No
    Forced                                   : No
    Statistics Tags Issue                    : mkvmerge v15.0.0 ('Duel with the Devil') 64-bit 2018-07-19 22:27:24 / mkvmerge v15.0.0 ('Duel with the Devil') 64-bit 2018-07-19 22:27:24 / UTC 2018-07-14T23:00:56Z
    FromStats_BitRate                        : 1508999
    FromStats_Duration                       : 01:50:01.174000000
    FromStats_FrameCount                     : 618860
    FromStats_StreamSize                     : 1245146320

    Text #1
    ID                                       : 4
    Format                                   : PGS
    Muxing mode                              : zlib
    Codec ID                                 : S_HDMV/PGS
    Codec ID/Info                            : Picture based subtitle format used on BDs/HD-DVDs
    Language                                 : English
    Default                                  : No
    Forced                                   : No
    Statistics Tags Issue                    : mkvmerge v15.0.0 ('Duel with the Devil') 64-bit 2018-07-19 22:27:24 / mkvmerge v15.0.0 ('Duel with the Devil') 64-bit 2018-07-19 22:27:24 / UTC 2018-07-14T23:00:56Z
    FromStats_BitRate                        : 28831
    FromStats_Duration                       : 01:49:36.529000000
    FromStats_FrameCount                     : 2277
    FromStats_StreamSize                     : 23701087

    Text #2
    ID                                       : 5
    Format                                   : PGS
    Muxing mode                              : zlib
    Codec ID                                 : S_HDMV/PGS
    Codec ID/Info                            : Picture based subtitle format used on BDs/HD-DVDs
    Language                                 : Spanish
    Default                                  : No
    Forced                                   : No
    Statistics Tags Issue                    : mkvmerge v15.0.0 ('Duel with the Devil') 64-bit 2018-07-19 22:27:24 / mkvmerge v15.0.0 ('Duel with the Devil') 64-bit 2018-07-19 22:27:24 / UTC 2018-07-14T23:00:56Z
    FromStats_BitRate                        : 36172
    FromStats_Duration                       : 01:47:16.020000000
    FromStats_FrameCount                     : 1854
    FromStats_StreamSize                     : 29101191

    Text #3
    ID                                       : 6
    Format                                   : PGS
    Muxing mode                              : zlib
    Codec ID                                 : S_HDMV/PGS
    Codec ID/Info                            : Picture based subtitle format used on BDs/HD-DVDs
    Title                                    : Forzados
    Language                                 : Spanish
    Default                                  : Yes
    Forced                                   : Yes
    Statistics Tags Issue                    : mkvmerge v15.0.0 ('Duel with the Devil') 64-bit 2018-07-19 22:27:24 / mkvmerge v15.0.0 ('Duel with the Devil') 64-bit 2018-07-19 22:27:24 / UTC 2018-07-14T23:00:56Z
    FromStats_BitRate                        : 201
    FromStats_Duration                       : 01:47:16.020000000
    FromStats_FrameCount                     : 14
    FromStats_StreamSize                     : 162338

    Menu
    00:00:00.000                             : :Chapter 1
    00:03:19.199                             : :Chapter 2
    00:05:02.677                             : :Chapter 3
    00:07:49.219                             : :Chapter 4
    00:08:53.116                             : :Chapter 5
    00:09:56.596                             : :Chapter 6
    00:11:34.736                             : :Chapter 7
    00:15:55.079                             : :Chapter 8
    00:17:56.951                             : :Chapter 9
    00:22:39.108                             : :Chapter 10
    00:25:18.559                             : :Chapter 11
    00:31:25.634                             : :Chapter 12
    00:33:37.224                             : :Chapter 13
    00:36:41.366                             : :Chapter 14
    00:40:41.522                             : :Chapter 15
    00:42:59.660                             : :Chapter 16
    00:47:48.574                             : :Chapter 17
    00:50:11.800                             : :Chapter 18
    00:54:09.121                             : :Chapter 19
    00:56:34.182                             : :Chapter 20
    01:00:12.567                             : :Chapter 21
    01:02:56.273                             : :Chapter 22
    01:04:45.215                             : :Chapter 23
    01:06:47.253                             : :Chapter 24
    01:09:50.269                             : :Chapter 25
    01:13:04.755                             : :Chapter 26
    01:14:44.939                             : :Chapter 27
    01:20:40.836                             : :Chapter 28
    01:25:01.138                             : :Chapter 29
    01:27:53.852                             : :Chapter 30
    01:38:00.583                             : :Chapter 31
    01:45:29.532                             : :Chapter 32

  • Peso: 11.4 GiB

Sinopsis

Un malvado magnate, Auric Goldfinger, quiere hacer estallar una bomba atómica en Fort Knox, donde está toda la reserva federal de oro de los Estados Unidos, para poder así incrementar enormemente el precio del metal dorado.

Ficha técnica

Video trailer de la película

Enlaces de descarga

Rip de Bluray

Descargar James Bond Goldfinger (1964) Full 1080p Latino




Aportes de DPeliculasHDmega la pass es:dpeliculashdmega.org Aportes de CinemaniaHD la pass es:cinemaniahdd.com

Películas relacionadas

  • La leyenda del gigante de la montaña (2018) 1080p Latino

    2017
    La leyenda del gigante de la montaña (2018) 1080p Latino

    0.0 2h 0m 2017

    Espen "Ash Lad", un pobre hijo de granjero, se embarca en una peligrosa aventura con sus hermanos para...

    Director: Mikkel Brænne Sandemose

    Género: 1080p Portada Negra

    Actores: Vebjørn Enger

  • La jungla (2017) 1080p Latino

    2017
    La jungla (2017) 1080p Latino

    0.0 1h 55m 2017

    Cuenta la historia real de Yossi Ghinsberg, un joven aventurero que vivió para escribir un bestseller...

    Director: Greg McLean

    Género: 1080p Portada Negra

    Actores: Yasmin Kassim

  • Big Fish & Begonia (2018) NF 1080p Latino

    2016
    Big Fish & Begonia (2018) NF 1080p Latino

    0.0 1h 30m 2016

    En un universo más allá del nuestro, Chun celebra su decimosexto aniversario cumpliendo una tradición...

    Director: Zhang Chun

    Género: Animación

    Actores: Zhang Jie

  • V/H/S: (2014) Full 1080p Subtitulado

    2014
    V/H/S: (2014) Full 1080p Subtitulado

    4.2 1 h 21 min 2014

    Un camión está causando el caos en la calle, atropellando a todo aquel que se cruza en su camino. Mientras...

    Director: Todd Lincoln

    Género: FULL 1080p Plateadas

    Actores: Nick Blanco

Comentarios 0