James Bond A View to a Kill (1985) Full 1080p Latino | CinemaniaHD - Descargar Peliculas 1080p Mega Google Drive

James Bond A View to a Kill (1985) Full 1080p Latino

299 vistas
1 estrella2 estrellas3 estrellas4 estrellas5 estrellas (Ninguna valoración todavía)
Cargando…

Información de James Bond A View to a Kill (1985) Full 1080p Latino

Datos de la película

  • Calidad: Full 1080p
  • Audio: Español Latino AC3 5.1 BLURAY - Ingles DTS 5.1 BLURAY
  • Subtitulos: Español Latino PGS - Ingles PGS
  • Resolución: 1920x1080p
  • Formato: MKV
  • Codec: H.264
  • Encoder: Dracarys
  • Mediainfo: Clic para Mostrar Datos Ver
  • Format                                   : Matroska
    Format version                           : Version 4 / Version 2
    File size                                : 8.46 GiB
    Duration                                 : 2 h 11 min
    Overall bit rate                         : 9 218 kb/s
    Movie name                               : CinemaniaHDD.net
    Encoded date                             : UTC 2018-07-25 23:26:23 / UTC 2018-07-18T09:03:36Z
    Writing application                      : mkvmerge v15.0.0 ('Duel with the Devil') 64-bit
    Writing library                          : libebml v1.3.5 + libmatroska v1.4.5 / Lavf57.7.2

    Video
    ID                                       : 1
    Format                                   : AVC
    Format/Info                              : Advanced Video Codec
    Format profile                           : High@L4.1
    Format settings                          : CABAC / 4 Ref Frames
    Format settings, CABAC                   : Yes
    Format settings, RefFrames               : 4 frames
    Codec ID                                 : V_MPEG4/ISO/AVC
    Duration                                 : 2 h 11 min
    Bit rate                                 : 7 078 kb/s
    Width                                    : 1 920 pixels
    Height                                   : 1 080 pixels
    Display aspect ratio                     : 16:9
    Frame rate mode                          : Constant
    Frame rate                               : 23.976 (24000/1001) FPS
    Color space                              : YUV
    Chroma subsampling                       : 4:2:0
    Bit depth                                : 8 bits
    Scan type                                : Progressive
    Bits/(Pixel*Frame)                       : 0.142
    Stream size                              : 6.49 GiB (77%)
    Title                                    : James Bond A View to a Kill (1985) Full 1080p Latino
    Writing library                          : x264 core 148 r2708 86b7198
    Encoding settings                        : cabac=1 / ref=4 / deblock=1:0:0 / analyse=0x3:0x133 / me=esa / subme=10 / psy=1 / psy_rd=1.00:0.00 / mixed_ref=1 / me_range=24 / chroma_me=1 / trellis=2 / 8x8dct=1 / cqm=0 / deadzone=21,11 / fast_pskip=1 / chroma_qp_offset=-2 / threads=34 / lookahead_threads=5 / sliced_threads=0 / nr=0 / decimate=1 / interlaced=0 / bluray_compat=0 / constrained_intra=0 / bframes=8 / b_pyramid=2 / b_adapt=2 / b_bias=0 / direct=3 / weightb=1 / open_gop=0 / weightp=2 / keyint=240 / keyint_min=24 / scenecut=40 / intra_refresh=0 / rc_lookahead=60 / rc=crf / mbtree=1 / crf=20.0 / qcomp=0.60 / qpmin=0 / qpmax=69 / qpstep=4 / vbv_maxrate=62500 / vbv_bufsize=78125 / crf_max=0.0 / nal_hrd=none / filler=0 / ip_ratio=1.40 / aq=1:1.00
    Language                                 : English
    Default                                  : Yes
    Forced                                   : No
    Color range                              : Limited
    Color primaries                          : BT.709
    Transfer characteristics                 : BT.709
    Matrix coefficients                      : BT.709
    Statistics Tags Issue                    : mkvmerge v15.0.0 ('Duel with the Devil') 64-bit 2018-07-25 23:26:23 / mkvmerge v15.0.0 ('Duel with the Devil') 64-bit 2018-07-25 23:26:23 / UTC 2018-07-18T09:03:36Z
    FromStats_BitRate                        : 7233661
    FromStats_Duration                       : 02:11:18.746000000
    FromStats_FrameCount                     : 188901
    FromStats_StreamSize                     : 7124022901

    Audio #1
    ID                                       : 2
    Format                                   : AC-3
    Format/Info                              : Audio Coding 3
    Format settings, Endianness              : Big
    Codec ID                                 : A_AC3
    Duration                                 : 2 h 11 min
    Bit rate mode                            : Constant
    Bit rate                                 : 448 kb/s
    Channel(s)                               : 6 channels
    Channel positions                        : Front: L C R, Side: L R, LFE
    Sampling rate                            : 48.0 kHz
    Frame rate                               : 31.250 FPS (1536 SPF)
    Bit depth                                : 16 bits
    Compression mode                         : Lossy
    Stream size                              : 421 MiB (5%)
    Language                                 : Spanish
    Service kind                             : Complete Main
    Default                                  : Yes
    Forced                                   : No
    Statistics Tags Issue                    : mkvmerge v15.0.0 ('Duel with the Devil') 64-bit 2018-07-25 23:26:23 / mkvmerge v15.0.0 ('Duel with the Devil') 64-bit 2018-07-25 23:26:23 / UTC 2018-07-18T09:03:36Z
    FromStats_BitRate                        : 448000
    FromStats_Duration                       : 02:11:18.816000000
    FromStats_FrameCount                     : 246213
    FromStats_StreamSize                     : 441213696

    Audio #2
    ID                                       : 3
    Format                                   : DTS
    Format/Info                              : Digital Theater Systems
    Mode                                     : 16
    Format settings, Endianness              : Big
    Codec ID                                 : A_DTS
    Duration                                 : 2 h 11 min
    Bit rate mode                            : Constant
    Bit rate                                 : 1 509 kb/s
    Channel(s)                               : 6 channels
    Channel positions                        : Front: L C R, Side: L R, LFE
    Sampling rate                            : 48.0 kHz
    Frame rate                               : 93.750 FPS (512 SPF)
    Bit depth                                : 24 bits
    Compression mode                         : Lossy
    Stream size                              : 1.38 GiB (16%)
    Language                                 : English
    Default                                  : No
    Forced                                   : No
    Statistics Tags Issue                    : mkvmerge v15.0.0 ('Duel with the Devil') 64-bit 2018-07-25 23:26:23 / mkvmerge v15.0.0 ('Duel with the Devil') 64-bit 2018-07-25 23:26:23 / UTC 2018-07-18T09:03:36Z
    FromStats_BitRate                        : 1509000
    FromStats_Duration                       : 02:11:18.784000000
    FromStats_FrameCount                     : 738636
    FromStats_StreamSize                     : 1486135632

    Text #1
    ID                                       : 4
    Format                                   : PGS
    Muxing mode                              : zlib
    Codec ID                                 : S_HDMV/PGS
    Codec ID/Info                            : Picture based subtitle format used on BDs/HD-DVDs
    Language                                 : English
    Default                                  : No
    Forced                                   : No
    Statistics Tags Issue                    : mkvmerge v15.0.0 ('Duel with the Devil') 64-bit 2018-07-25 23:26:23 / mkvmerge v15.0.0 ('Duel with the Devil') 64-bit 2018-07-25 23:26:23 / UTC 2018-07-18T09:03:36Z
    FromStats_BitRate                        : 24511
    FromStats_Duration                       : 02:10:30.948000000
    FromStats_FrameCount                     : 2150
    FromStats_StreamSize                     : 23993971

    Text #2
    ID                                       : 5
    Format                                   : PGS
    Muxing mode                              : zlib
    Codec ID                                 : S_HDMV/PGS
    Codec ID/Info                            : Picture based subtitle format used on BDs/HD-DVDs
    Language                                 : Spanish
    Default                                  : No
    Forced                                   : No
    Statistics Tags Issue                    : mkvmerge v15.0.0 ('Duel with the Devil') 64-bit 2018-07-25 23:26:23 / mkvmerge v15.0.0 ('Duel with the Devil') 64-bit 2018-07-25 23:26:23 / UTC 2018-07-18T09:03:36Z
    FromStats_BitRate                        : 23603
    FromStats_Duration                       : 02:11:05.524000000
    FromStats_FrameCount                     : 2064
    FromStats_StreamSize                     : 23206782

    Text #3
    ID                                       : 6
    Format                                   : PGS
    Muxing mode                              : zlib
    Codec ID                                 : S_HDMV/PGS
    Codec ID/Info                            : Picture based subtitle format used on BDs/HD-DVDs
    Title                                    : Forzados
    Language                                 : Spanish
    Default                                  : Yes
    Forced                                   : Yes
    Statistics Tags Issue                    : mkvmerge v15.0.0 ('Duel with the Devil') 64-bit 2018-07-25 23:26:23 / mkvmerge v15.0.0 ('Duel with the Devil') 64-bit 2018-07-25 23:26:23 / UTC 2018-07-18T09:03:36Z
    FromStats_BitRate                        : 39562
    FromStats_Duration                       : 02:10:53.179000000
    FromStats_FrameCount                     : 3205
    FromStats_StreamSize                     : 38836069

    Menu
    00:00:00.000                             : :Chapter 1
    00:06:15.667                             : :Chapter 2
    00:09:39.996                             : :Chapter 3
    00:12:45.640                             : :Chapter 4
    00:15:23.881                             : :Chapter 5
    00:18:01.789                             : :Chapter 6
    00:22:05.574                             : :Chapter 7
    00:25:28.944                             : :Chapter 8
    00:29:10.624                             : :Chapter 9
    00:35:42.932                             : :Chapter 10
    00:39:13.685                             : :Chapter 11
    00:40:42.315                             : :Chapter 12
    00:41:50.883                             : :Chapter 13
    00:44:01.848                             : :Chapter 14
    00:47:18.711                             : :Chapter 15
    00:52:23.057                             : :Chapter 16
    00:54:15.627                             : :Chapter 17
    00:55:52.683                             : :Chapter 18
    00:58:40.350                             : :Chapter 19
    01:01:58.381                             : :Chapter 20
    01:06:47.003                             : :Chapter 21
    01:12:54.787                             : :Chapter 22
    01:17:13.754                             : :Chapter 23
    01:21:08.280                             : :Chapter 24
    01:24:10.212                             : :Chapter 25
    01:33:21.054                             : :Chapter 26
    01:39:17.118                             : :Chapter 27
    01:42:06.245                             : :Chapter 28
    01:46:55.743                             : :Chapter 29
    01:53:22.504                             : :Chapter 30
    01:59:27.661                             : :Chapter 31
    02:08:39.795                             : :Chapter 32

  • Peso: 8.46 GiB

Sinopsis

Bond recibe la misión de desenmascarar a Max Zorin, un misterioso empresario, y aparente espía de la KGB, que amenaza con dominar el mundo por medio de sus revolucionarios microchips. Aliado a poderosas empresas de tecnología punta, su objetivo es destruir la falla de San Andrés, provocando un terremoto de irreversibles consecuencias.

Ficha técnica

Video trailer de la película

Enlaces de descarga

Rip de Bluray

Descargar James Bond A View to a Kill (1985) Full 1080p Latino




Aportes de DPeliculasHDmega la pass es:dpeliculashdmega.org Aportes de CinemaniaHD la pass es:cinemaniahdd.com

Películas relacionadas

  • La leyenda del gigante de la montaña (2018) 1080p Latino

    2017
    La leyenda del gigante de la montaña (2018) 1080p Latino

    0.0 2h 0m 2017

    Espen "Ash Lad", un pobre hijo de granjero, se embarca en una peligrosa aventura con sus hermanos para...

    Director: Mikkel Brænne Sandemose

    Género: 1080p Portada Negra

    Actores: Vebjørn Enger

  • La jungla (2017) 1080p Latino

    2017
    La jungla (2017) 1080p Latino

    0.0 1h 55m 2017

    Cuenta la historia real de Yossi Ghinsberg, un joven aventurero que vivió para escribir un bestseller...

    Director: Greg McLean

    Género: 1080p Portada Negra

    Actores: Yasmin Kassim

  • Big Fish & Begonia (2018) NF 1080p Latino

    2016
    Big Fish & Begonia (2018) NF 1080p Latino

    0.0 1h 30m 2016

    En un universo más allá del nuestro, Chun celebra su decimosexto aniversario cumpliendo una tradición...

    Director: Zhang Chun

    Género: Animación

    Actores: Zhang Jie

  • V/H/S: (2014) Full 1080p Subtitulado

    2014
    V/H/S: (2014) Full 1080p Subtitulado

    4.2 1 h 21 min 2014

    Un camión está causando el caos en la calle, atropellando a todo aquel que se cruza en su camino. Mientras...

    Director: Todd Lincoln

    Género: FULL 1080p Plateadas

    Actores: Nick Blanco

Comentarios 1
  • ocpgaiden - 26 julio, 2018

    gracias por en la mira delos asesinos, saludos