Inmersión (2017) Full 1080p Subtitulado

1.670 vistas
1 estrella2 estrellas3 estrellas4 estrellas5 estrellas (1 votos, promedio: 5,00 de 5)
Cargando…

Información de Inmersión (2017) Full 1080p Subtitulado

Datos de la película

  • Calidad: Full 1080p
  • Audio: Ingles DTS 5.1 BLURAY
  • Subtitulos: Español Latino SRT
  • Resolución: 1920x1080p
  • Formato: MKV
  • Codec: H.264
  • Encoder: Dracarys
  • Mediainfo: Clic para Mostrar Datos Ver
  • Format                                   : Matroska
    Format version                           : Version 4 / Version 2
    File size                                : 8.22 GiB
    Duration                                 : 1 h 51 min
    Overall bit rate                         : 10.5 Mb/s
    Movie name                               : CinemaniaHDD.net
    Encoded date                             : UTC 2018-07-12 22:53:21 / UTC 2018-06-07T18:28:02Z
    Writing application                      : mkvmerge v15.0.0 ('Duel with the Devil') 64-bit
    Writing library                          : libebml v1.3.5 + libmatroska v1.4.5 / Lavf57.7.2

    Video
    ID                                       : 1
    Format                                   : AVC
    Format/Info                              : Advanced Video Codec
    Format profile                           : High@L4.1
    Format settings                          : CABAC / 4 Ref Frames
    Format settings, CABAC                   : Yes
    Format settings, RefFrames               : 4 frames
    Codec ID                                 : V_MPEG4/ISO/AVC
    Duration                                 : 1 h 51 min
    Bit rate                                 : 8 828 kb/s
    Width                                    : 1 920 pixels
    Height                                   : 1 080 pixels
    Display aspect ratio                     : 16:9
    Frame rate mode                          : Constant
    Frame rate                               : 24.000 FPS
    Color space                              : YUV
    Chroma subsampling                       : 4:2:0
    Bit depth                                : 8 bits
    Scan type                                : Progressive
    Bits/(Pixel*Frame)                       : 0.177
    Stream size                              : 6.88 GiB (84%)
    Title                                    : Inmersión (2017) Full 1080p Subtitulado
    Writing library                          : x264 core 148 r2708 86b7198
    Encoding settings                        : cabac=1 / ref=4 / deblock=1:0:0 / analyse=0x3:0x133 / me=esa / subme=9 / psy=1 / psy_rd=1.00:0.00 / mixed_ref=1 / me_range=16 / chroma_me=1 / trellis=2 / 8x8dct=1 / cqm=0 / deadzone=21,11 / fast_pskip=1 / chroma_qp_offset=-2 / threads=34 / lookahead_threads=2 / sliced_threads=0 / nr=0 / decimate=1 / interlaced=0 / bluray_compat=0 / constrained_intra=0 / bframes=3 / b_pyramid=2 / b_adapt=2 / b_bias=0 / direct=3 / weightb=1 / open_gop=0 / weightp=2 / keyint=240 / keyint_min=24 / scenecut=40 / intra_refresh=0 / rc_lookahead=60 / rc=crf / mbtree=1 / crf=20.0 / qcomp=0.60 / qpmin=0 / qpmax=69 / qpstep=4 / vbv_maxrate=62500 / vbv_bufsize=78125 / crf_max=0.0 / nal_hrd=none / filler=0 / ip_ratio=1.40 / aq=1:1.00
    Language                                 : English
    Default                                  : Yes
    Forced                                   : No
    Color range                              : Limited
    Color primaries                          : BT.709
    Transfer characteristics                 : BT.709
    Matrix coefficients                      : BT.709
    Statistics Tags Issue                    : mkvmerge v15.0.0 ('Duel with the Devil') 64-bit 2018-07-12 22:53:21 / mkvmerge v15.0.0 ('Duel with the Devil') 64-bit 2018-07-12 22:53:21 / UTC 2018-06-07T18:28:02Z
    FromStats_BitRate                        : 9035753
    FromStats_Duration                       : 01:51:36.250000000
    FromStats_FrameCount                     : 160710
    FromStats_StreamSize                     : 7563208175

    Audio
    ID                                       : 2
    Format                                   : DTS
    Format/Info                              : Digital Theater Systems
    Mode                                     : 16
    Format settings, Endianness              : Big
    Codec ID                                 : A_DTS
    Duration                                 : 1 h 51 min
    Bit rate mode                            : Constant
    Bit rate                                 : 1 509 kb/s
    Channel(s)                               : 6 channels
    Channel positions                        : Front: L C R, Side: L R, LFE
    Sampling rate                            : 48.0 kHz
    Frame rate                               : 93.750 FPS (512 SPF)
    Bit depth                                : 24 bits
    Compression mode                         : Lossy
    Stream size                              : 1.18 GiB (14%)
    Language                                 : English
    Default                                  : Yes
    Forced                                   : No
    Statistics Tags Issue                    : mkvmerge v15.0.0 ('Duel with the Devil') 64-bit 2018-07-12 22:53:21 / mkvmerge v15.0.0 ('Duel with the Devil') 64-bit 2018-07-12 22:53:21 / UTC 2018-06-07T18:28:02Z
    FromStats_BitRate                        : 1508999
    FromStats_Duration                       : 01:51:35.702000000
    FromStats_FrameCount                     : 627722
    FromStats_StreamSize                     : 1262976664

    Text
    ID                                       : 3
    Format                                   : UTF-8
    Codec ID                                 : S_TEXT/UTF8
    Codec ID/Info                            : UTF-8 Plain Text
    Title                                    : SRT
    Language                                 : Spanish
    Default                                  : Yes
    Forced                                   : No
    Statistics Tags Issue                    : mkvmerge v15.0.0 ('Duel with the Devil') 64-bit 2018-07-12 22:53:21 / mkvmerge v15.0.0 ('Duel with the Devil') 64-bit 2018-07-12 22:53:21 / UTC 2018-06-07T18:28:02Z
    FromStats_BitRate                        : 44
    FromStats_Duration                       : 01:44:37.722000000
    FromStats_FrameCount                     : 1002
    FromStats_StreamSize                     : 34897

    Menu
    00:00:00.000                             : :Chapter 1
    00:06:30.083                             : :Chapter 2
    00:13:56.792                             : :Chapter 3
    00:19:15.208                             : :Chapter 4
    00:26:32.292                             : :Chapter 5
    00:34:03.208                             : :Chapter 6
    00:43:14.750                             : :Chapter 7
    00:48:35.167                             : :Chapter 8
    00:54:43.625                             : :Chapter 9
    01:01:40.000                             : :Chapter 10
    01:08:25.417                             : :Chapter 11
    01:15:05.375                             : :Chapter 12
    01:21:54.542                             : :Chapter 13
    01:29:34.292                             : :Chapter 14
    01:37:09.625                             : :Chapter 15
    01:45:57.208                             : :Chapter 16

  • Peso: 8.22 GiB

Sinopsis

James More es un ingeniero hidráulico que ha sido tomado como rehén en Somalia por los terroristas yihadistas, que sospechan que es un espía británico. Danielle ‘Danny’ Flinders es una bio-matemática que trabaja en un proyecto de inmersión en las aguas más profundas de los océanos para demostrar su teoría sobre el origen de la vida en el planeta. Un año antes, James y Danny se conocieron en un aislado hotel de la costa atlántica francesa, donde ambos preparaban sus peligrosas misiones, y allí encontraron, el uno en el otro, al amor de sus vidas. Ahora, separados, Danny inicia su peligrosa inmersión al fondo del océano en Groenlandia sin saber si James sigue vivo.

Ficha técnica

Video trailer de la película

Enlaces de descarga

Rip de Bluray

Descargar Inmersión (2017) Full 1080p Subtitulado




Aportes de DPeliculasHDmega la pass es:dpeliculashdmega.org Aportes de CinemaniaHD la pass es:cinemaniahdd.com

Películas relacionadas

  • Paciente Cero (2018) Full 1080p Latino

    2018
    Paciente Cero (2018) Full 1080p Latino

    5.0 1h 26m 2018

    Paciente Cero (2018) Full 1080p Latino; Mega, Google Drive. Tras una pandemia sin precedentes, la Humanidad...

    Director: Stefan Ruzowitzky

    Género: Acción

    Actores: Yumiko Hanasaka

  • Paciente Cero (2018) 1080p Latino

    2018
    Paciente Cero (2018) 1080p Latino

    0.0 1h 26m 2018

    Descargar Paciente Cero (2018) 1080p Latino; Mega, Google Drive. Tras una pandemia sin precedentes, la...

    Director: Stefan Ruzowitzky

    Género: Acción

    Actores: Yumiko Hanasaka

Comentarios 0