Imparable (2010) Full 1080p Latino

959 vistas
1 estrella2 estrellas3 estrellas4 estrellas5 estrellas (1 votos, promedio: 5,00 de 5)
Cargando…

Información de Imparable (2010) Full 1080p Latino

Datos de la película

  • Calidad: Full 1080p
  • Audio: Español Latino AC3 5.1 BLURAY - Ingles DTS 5.1 BLURAY
  • Subtitulos: Español Latino SRT
  • Resolución: 1920X1080
  • Formato: MKV
  • Codec: H.264
  • Encoder: Dpelis
  • Mediainfo: Clic para Mostrar Datos Ver
  • Format                                   : Matroska
    Format version                           : Version 4 / Version 2
    File size                                : 15.5 GiB
    Duration                                 : 1 h 38 min
    Overall bit rate                         : 22.6 Mb/s
    Movie name                               : dpeliculashdmega.org
    Encoded date                             : UTC 2017-11-22 05:57:02 / UTC 2017-11-21T20:30:25Z
    Writing application                      : mkvmerge v15.0.0 ('Duel with the Devil') 64-bit
    Writing library                          : libebml v1.3.5 + libmatroska v1.4.5 / Lavf57.7.2

    Video
    ID                                       : 1
    Format                                   : AVC
    Format/Info                              : Advanced Video Codec
    Format profile                           : High@L4.1
    Format settings                          : CABAC / 4 Ref Frames
    Format settings, CABAC                   : Yes
    Format settings, RefFrames               : 4 frames
    Codec ID                                 : V_MPEG4/ISO/AVC
    Duration                                 : 1 h 38 min
    Bit rate                                 : 20.2 Mb/s
    Width                                    : 1 920 pixels
    Height                                   : 1 080 pixels
    Display aspect ratio                     : 16:9
    Frame rate mode                          : Constant
    Frame rate                               : 23.976 (24000/1001) FPS
    Color space                              : YUV
    Chroma subsampling                       : 4:2:0
    Bit depth                                : 8 bits
    Scan type                                : Progressive
    Bits/(Pixel*Frame)                       : 0.405
    Stream size                              : 13.9 GiB (89%)
    Title                                    : Imparable (2010) Full 1080p Latino
    Writing library                          : x264 core 148 r2708 86b7198
    Encoding settings                        : cabac=1 / ref=4 / deblock=1:0:0 / analyse=0x3:0x133 / me=esa / subme=10 / psy=1 / psy_rd=1.00:0.00 / mixed_ref=1 / me_range=24 / chroma_me=1 / trellis=2 / 8x8dct=1 / cqm=0 / deadzone=21,11 / fast_pskip=1 / chroma_qp_offset=-2 / threads=34 / lookahead_threads=5 / sliced_threads=0 / nr=0 / decimate=1 / interlaced=0 / bluray_compat=0 / constrained_intra=0 / bframes=8 / b_pyramid=2 / b_adapt=2 / b_bias=0 / direct=3 / weightb=1 / open_gop=0 / weightp=2 / keyint=240 / keyint_min=24 / scenecut=40 / intra_refresh=0 / rc_lookahead=60 / rc=crf / mbtree=1 / crf=20.0 / qcomp=0.60 / qpmin=0 / qpmax=69 / qpstep=4 / vbv_maxrate=62500 / vbv_bufsize=78125 / crf_max=0.0 / nal_hrd=none / filler=0 / ip_ratio=1.40 / aq=1:1.00
    Language                                 : English
    Default                                  : Yes
    Forced                                   : No
    Color range                              : Limited
    Color primaries                          : BT.709
    Transfer characteristics                 : BT.709
    Matrix coefficients                      : BT.709
    Statistics Tags Issue                    : mkvmerge v15.0.0 ('Duel with the Devil') 64-bit 2017-11-22 05:57:02 / mkvmerge v15.0.0 ('Duel with the Devil') 64-bit 2017-11-22 05:57:02 / UTC 2017-11-21T20:30:25Z
    FromStats_BitRate                        : 20603220
    FromStats_Duration                       : 01:38:30.363000000
    FromStats_FrameCount                     : 141707
    FromStats_StreamSize                     : 15221564236

    Audio #1
    ID                                       : 2
    Format                                   : AC-3
    Format/Info                              : Audio Coding 3
    Format settings, Endianness              : Big
    Codec ID                                 : A_AC3
    Duration                                 : 1 h 38 min
    Bit rate mode                            : Constant
    Bit rate                                 : 448 kb/s
    Channel(s)                               : 6 channels
    Channel positions                        : Front: L C R, Side: L R, LFE
    Sampling rate                            : 48.0 kHz
    Frame rate                               : 31.250 FPS (1536 SPF)
    Bit depth                                : 16 bits
    Compression mode                         : Lossy
    Stream size                              : 316 MiB (2%)
    Title                                    : Latino-AC3
    Language                                 : Spanish
    Service kind                             : Complete Main
    Default                                  : Yes
    Forced                                   : No
    Statistics Tags Issue                    : mkvmerge v15.0.0 ('Duel with the Devil') 64-bit 2017-11-22 05:57:02 / mkvmerge v15.0.0 ('Duel with the Devil') 64-bit 2017-11-22 05:57:02 / UTC 2017-11-21T20:30:25Z
    FromStats_BitRate                        : 448000
    FromStats_Duration                       : 01:38:30.368000000
    FromStats_FrameCount                     : 184699
    FromStats_StreamSize                     : 330980608

    Audio #2
    ID                                       : 3
    Format                                   : DTS
    Format/Info                              : Digital Theater Systems
    Mode                                     : 16
    Format settings, Endianness              : Big
    Codec ID                                 : A_DTS
    Duration                                 : 1 h 38 min
    Bit rate mode                            : Constant
    Bit rate                                 : 1 509 kb/s
    Channel(s)                               : 6 channels
    Channel positions                        : Front: L C R, Side: L R, LFE
    Sampling rate                            : 48.0 kHz
    Frame rate                               : 93.750 FPS (512 SPF)
    Bit depth                                : 24 bits
    Compression mode                         : Lossy
    Stream size                              : 1.04 GiB (7%)
    Title                                    : Ingles-DTS
    Language                                 : English
    Default                                  : No
    Forced                                   : No
    Statistics Tags Issue                    : mkvmerge v15.0.0 ('Duel with the Devil') 64-bit 2017-11-22 05:57:02 / mkvmerge v15.0.0 ('Duel with the Devil') 64-bit 2017-11-22 05:57:02 / UTC 2017-11-21T20:30:25Z
    FromStats_BitRate                        : 1509000
    FromStats_Duration                       : 01:38:30.368000000
    FromStats_FrameCount                     : 554097
    FromStats_StreamSize                     : 1114843164

    Text #1
    ID                                       : 4
    Format                                   : UTF-8
    Codec ID                                 : S_TEXT/UTF8
    Codec ID/Info                            : UTF-8 Plain Text
    Title                                    : SRT-Forzados
    Language                                 : Spanish
    Default                                  : Yes
    Forced                                   : No
    Statistics Tags Issue                    : mkvmerge v15.0.0 ('Duel with the Devil') 64-bit 2017-11-22 05:57:02 / mkvmerge v15.0.0 ('Duel with the Devil') 64-bit 2017-11-22 05:57:02 / UTC 2017-11-21T20:30:25Z
    FromStats_BitRate                        : 1
    FromStats_Duration                       : 01:31:25.353000000
    FromStats_FrameCount                     : 18
    FromStats_StreamSize                     : 842

    Text #2
    ID                                       : 5
    Format                                   : UTF-8
    Codec ID                                 : S_TEXT/UTF8
    Codec ID/Info                            : UTF-8 Plain Text
    Title                                    : SRT-Completos
    Language                                 : Spanish
    Default                                  : No
    Forced                                   : No
    Statistics Tags Issue                    : mkvmerge v15.0.0 ('Duel with the Devil') 64-bit 2017-11-22 05:57:02 / mkvmerge v15.0.0 ('Duel with the Devil') 64-bit 2017-11-22 05:57:02 / UTC 2017-11-21T20:30:25Z
    FromStats_BitRate                        : 70
    FromStats_Duration                       : 01:37:37.225000000
    FromStats_FrameCount                     : 1314
    FromStats_StreamSize                     : 51437

    Menu
    00:00:00.000                             : :Chapter 1
    00:04:45.619                             : :Chapter 2
    00:09:41.456                             : :Chapter 3
    00:14:37.752                             : :Chapter 4
    00:18:10.965                             : :Chapter 5
    00:20:58.841                             : :Chapter 6
    00:22:58.961                             : :Chapter 7
    00:25:31.447                             : :Chapter 8
    00:30:16.606                             : :Chapter 9
    00:33:58.495                             : :Chapter 10
    00:37:38.548                             : :Chapter 11
    00:39:59.188                             : :Chapter 12
    00:41:28.653                             : :Chapter 13
    00:46:36.961                             : :Chapter 14
    00:49:18.706                             : :Chapter 15
    00:52:25.017                             : :Chapter 16
    00:54:13.584                             : :Chapter 17
    00:58:44.146                             : :Chapter 18
    01:01:02.826                             : :Chapter 19
    01:03:14.291                             : :Chapter 20
    01:07:20.787                             : :Chapter 21
    01:10:00.238                             : :Chapter 22
    01:15:11.549                             : :Chapter 23
    01:18:24.617                             : :Chapter 24
    01:21:13.452                             : :Chapter 25
    01:24:53.547                             : :Chapter 26
    01:30:31.635                             : :Chapter 27
    01:32:58.865                             : :Chapter 28

     

  • Peso: 15.5 GiB

Sinopsis

El destino cruza las vidas de un veterano ingeniero y la de un joven conductor cuando ambos tengan que aunar sus fuerzas para enfrentarse a una peligrosa misión. Un ferrocarril cargado de material altamente toxico ha perdido el control y se encuentra avanzando sin dirección llevándose por delante todo lo que va encontrándose a su paso.Ambos hombres tendrán que hacer que el tren pare antes de descarrilar, evitando así que suceda una tragedia de enormes dimensiones físicas y humanas

Ficha técnica

Video trailer de la película

Enlaces de descarga

Rip de Bluray

Descargar Imparable (2010) Full 1080p Latino




Aportes de DPeliculasHDmega la pass es:dpeliculashdmega.org Aportes de CinemaniaHD la pass es:cinemaniahdd.com

Películas relacionadas

  • Si solo pudiera imaginar (2018) Full 1080p Latino

    2018
    Si solo pudiera imaginar (2018) Full 1080p Latino

    5.0 1 h 50 min 2018

    La historia real de la aclamada canción "I Can Only Imagine", la canción cristiana contemporánea más...

    Director: Jon Erwin

    Género: Drama

    Actores: Trace Adkins

  • El Justiciero (2014) Full 1080p Latino

    2014
    El Justiciero (2014) Full 1080p Latino

    4.0 2 h 12 min 2014

    Robert McCall, un antiguo agente de la CIA que lleva ahora una vida tranquila, abandona su retiro para...

    Director: Deirdre Horgan

    Género: Acción

    Actores: Yan Dron

  • James Bond Live and Let Die (1973) Full 1080p Latino

    1973
    James Bond Live and Let Die (1973) Full 1080p Latino

    0.0 2 h 1 min 1973

    En tan sólo veinticuatro horas, tres agentes del servicio secreto británico que investigaban una red...

    Director: Guy Hamilton

    Género: Acción

    Actores: Yaphet Kotto

Comentarios 1
  • leonidas2016 - 22 noviembre, 2017

    Me encanta esta pelicula , exelente aporte ,gracias chicos