I Kill Giants (2017) Full 1080p Subtitulado

3.554 vistas
1 estrella2 estrellas3 estrellas4 estrellas5 estrellas (6 votos, promedio: 3,83 de 5)
Cargando…

Información de I Kill Giants (2017) Full 1080p Subtitulado

Datos de la película

  • Calidad: Full 1080p
  • Audio: Ingles DTS 5.1 BLURAY
  • Subtitulos: Español Latino PGS - Ingles PGS
  • Resolución: 1920x1080p
  • Formato: MKV
  • Codec: H.264
  • Encoder: Dracarys
  • Mediainfo: Clic para Mostrar Datos Ver
  • Format                                   : Matroska
    Format version                           : Version 4 / Version 2
    File size                                : 3.22 GiB
    Duration                                 : 1 h 46 min
    Overall bit rate                         : 4 330 kb/s
    Movie name                               : CinemaniaHDD.net
    Encoded date                             : UTC 2018-05-23 21:34:52 / UTC 2018-05-23T19:31:28Z
    Writing application                      : mkvmerge v15.0.0 ('Duel with the Devil') 64-bit
    Writing library                          : libebml v1.3.5 + libmatroska v1.4.5 / Lavf57.7.2

    Video
    ID                                       : 1
    Format                                   : AVC
    Format/Info                              : Advanced Video Codec
    Format profile                           : High@L4.1
    Format settings                          : CABAC / 4 Ref Frames
    Format settings, CABAC                   : Yes
    Format settings, RefFrames               : 4 frames
    Codec ID                                 : V_MPEG4/ISO/AVC
    Duration                                 : 1 h 46 min
    Bit rate                                 : 2 735 kb/s
    Width                                    : 1 920 pixels
    Height                                   : 1 080 pixels
    Display aspect ratio                     : 16:9
    Frame rate mode                          : Constant
    Frame rate                               : 23.976 (24000/1001) FPS
    Color space                              : YUV
    Chroma subsampling                       : 4:2:0
    Bit depth                                : 8 bits
    Scan type                                : Progressive
    Bits/(Pixel*Frame)                       : 0.055
    Stream size                              : 2.03 GiB (63%)
    Title                                    : I Kill Giants (2017) Full 1080p Latino
    Writing library                          : x264 core 148 r2708 86b7198
    Encoding settings                        : cabac=1 / ref=4 / deblock=1:0:0 / analyse=0x3:0x133 / me=esa / subme=9 / psy=1 / psy_rd=1.00:0.00 / mixed_ref=1 / me_range=16 / chroma_me=1 / trellis=2 / 8x8dct=1 / cqm=0 / deadzone=21,11 / fast_pskip=1 / chroma_qp_offset=-2 / threads=34 / lookahead_threads=2 / sliced_threads=0 / nr=0 / decimate=1 / interlaced=0 / bluray_compat=0 / constrained_intra=0 / bframes=3 / b_pyramid=2 / b_adapt=2 / b_bias=0 / direct=3 / weightb=1 / open_gop=0 / weightp=2 / keyint=240 / keyint_min=24 / scenecut=40 / intra_refresh=0 / rc_lookahead=60 / rc=crf / mbtree=1 / crf=20.0 / qcomp=0.60 / qpmin=0 / qpmax=69 / qpstep=4 / vbv_maxrate=62500 / vbv_bufsize=78125 / crf_max=0.0 / nal_hrd=none / filler=0 / ip_ratio=1.40 / aq=1:1.00
    Language                                 : English
    Default                                  : Yes
    Forced                                   : No
    Color range                              : Limited
    Color primaries                          : BT.709
    Transfer characteristics                 : BT.709
    Matrix coefficients                      : BT.709
    Statistics Tags Issue                    : mkvmerge v15.0.0 ('Duel with the Devil') 64-bit 2018-05-23 21:34:52 / mkvmerge v15.0.0 ('Duel with the Devil') 64-bit 2018-05-23 21:34:52 / UTC 2018-05-23T19:31:28Z
    FromStats_BitRate                        : 2805417
    FromStats_Duration                       : 01:46:23.169000000
    FromStats_FrameCount                     : 153043
    FromStats_StreamSize                     : 2238432032

    Audio
    ID                                       : 2
    Format                                   : DTS
    Format/Info                              : Digital Theater Systems
    Mode                                     : 16
    Format settings, Endianness              : Big
    Codec ID                                 : A_DTS
    Duration                                 : 1 h 46 min
    Bit rate mode                            : Constant
    Bit rate                                 : 1 509 kb/s
    Channel(s)                               : 6 channels
    Channel positions                        : Front: L C R, Side: L R, LFE
    Sampling rate                            : 48.0 kHz
    Frame rate                               : 93.750 FPS (512 SPF)
    Bit depth                                : 24 bits
    Compression mode                         : Lossy
    Stream size                              : 1.12 GiB (35%)
    Language                                 : English
    Default                                  : Yes
    Forced                                   : No
    Statistics Tags Issue                    : mkvmerge v15.0.0 ('Duel with the Devil') 64-bit 2018-05-23 21:34:52 / mkvmerge v15.0.0 ('Duel with the Devil') 64-bit 2018-05-23 21:34:52 / UTC 2018-05-23T19:31:28Z
    FromStats_BitRate                        : 1508999
    FromStats_Duration                       : 01:46:22.155000000
    FromStats_FrameCount                     : 598327
    FromStats_StreamSize                     : 1203833924

    Text #1
    ID                                       : 3
    Format                                   : PGS
    Muxing mode                              : zlib
    Codec ID                                 : S_HDMV/PGS
    Codec ID/Info                            : Picture based subtitle format used on BDs/HD-DVDs
    Language                                 : English
    Default                                  : No
    Forced                                   : No
    Statistics Tags Issue                    : mkvmerge v15.0.0 ('Duel with the Devil') 64-bit 2018-05-23 21:34:52 / mkvmerge v15.0.0 ('Duel with the Devil') 64-bit 2018-05-23 21:34:52 / UTC 2018-05-23T19:31:28Z
    FromStats_BitRate                        : 16077
    FromStats_Duration                       : 01:45:22.650000000
    FromStats_FrameCount                     : 2038
    FromStats_StreamSize                     : 12706729

    Text #2
    ID                                       : 4
    Format                                   : PGS
    Muxing mode                              : zlib
    Codec ID                                 : S_HDMV/PGS
    Codec ID/Info                            : Picture based subtitle format used on BDs/HD-DVDs
    Language                                 : Spanish
    Default                                  : Yes
    Forced                                   : Yes
    Statistics Tags Issue                    : mkvmerge v15.0.0 ('Duel with the Devil') 64-bit 2018-05-23 21:34:52 / mkvmerge v15.0.0 ('Duel with the Devil') 64-bit 2018-05-23 21:34:52 / UTC 2018-05-23T19:31:28Z
    FromStats_BitRate                        : 27769
    FromStats_Duration                       : 01:33:06.414000000
    FromStats_FrameCount                     : 1792
    FromStats_StreamSize                     : 19391691

    Menu
    00:00:00.000                             : :Chapter 1
    00:08:40.353                             : :Chapter 2
    00:16:09.802                             : :Chapter 3
    00:20:35.609                             : :Chapter 4
    00:32:25.318                             : :Chapter 5
    00:51:53.819                             : :Chapter 6
    01:04:16.144                             : :Chapter 7
    01:16:04.977                             : :Chapter 8
    01:23:37.012                             : :Chapter 9
    01:37:49.906                             : :Chapter 10

  • Peso: 3.22 GiB

Sinopsis

Barbara Thorson es una chica poco sociable e inadaptada cuya vida no es nada fácil, por lo que comienza a imaginarse un mundo fantástico donde existen criaturas gigantes de las que se tiene que encargar. Su única misión: detenerlas.

Ficha técnica

Video trailer de la película

Enlaces de descarga

Rip de Bluray

Descargar I Kill Giants (2017) Full 1080p Subtitulado




Aportes de DPeliculasHDmega la pass es:dpeliculashdmega.org Aportes de CinemaniaHD la pass es:cinemaniahdd.com

Películas relacionadas

Comentarios 3
  • DOPPEX - 28 mayo, 2018

    la subiran en latino?

    • dpelis - 29 mayo, 2018

      cuando salga amigo

  • Chencho Sama - 25 mayo, 2018

    de Lujo con el aporte muchas gracias. Muchas Gracias