Hotel Artemis (2018) 1080p Latino

1.327 vistas
1 estrella2 estrellas3 estrellas4 estrellas5 estrellas (1 votos, promedio: 5,00 de 5)
Cargando…

Información de Hotel Artemis (2018) 1080p Latino

Datos de la película

  • Calidad: 1080p
  • Audio: Español Latino AC3 5.1 DVD - Ingles AC3 5.1 BLURAY
  • Subtitulos: Español Latino SRT
  • Resolución: 1920x800p
  • Formato: MKV
  • Codec: H.264
  • Encoder: Dracarys
  • Mediainfo: Clic para Mostrar Datos Ver
  • Format                                   : Matroska
    Format version                           : Version 4 / Version 2
    File size                                : 2.85 GiB
    Duration                                 : 1 h 33 min
    Overall bit rate                         : 4 358 kb/s
    Movie name                               : CinemaniaHDD.net
    Encoded date                             : UTC 2018-09-27 01:33:19 / UTC 2018-09-27T00:12:21Z
    Writing application                      : mkvmerge v15.0.0 ('Duel with the Devil') 64-bit
    Writing library                          : libebml v1.3.5 + libmatroska v1.4.5 / Lavf57.7.2

    Video
    ID                                       : 1
    Format                                   : AVC
    Format/Info                              : Advanced Video Codec
    Format profile                           : High@L4.1
    Format settings                          : CABAC / 5 Ref Frames
    Format settings, CABAC                   : Yes
    Format settings, RefFrames               : 5 frames
    Codec ID                                 : V_MPEG4/ISO/AVC
    Duration                                 : 1 h 33 min
    Bit rate                                 : 3 183 kb/s
    Nominal bit rate                         : 3 500 kb/s
    Width                                    : 1 920 pixels
    Height                                   : 800 pixels
    Display aspect ratio                     : 2.40:1
    Frame rate mode                          : Constant
    Frame rate                               : 23.976 (24000/1001) FPS
    Color space                              : YUV
    Chroma subsampling                       : 4:2:0
    Bit depth                                : 8 bits
    Scan type                                : Progressive
    Bits/(Pixel*Frame)                       : 0.086
    Stream size                              : 2.08 GiB (73%)
    Title                                    : Hotel Artemis (2018) 1080p Latino
    Writing library                          : x264 core 148 r2708 86b7198
    Encoding settings                        : cabac=1 / ref=5 / deblock=1:0:0 / analyse=0x3:0x113 / me=umh / subme=8 / psy=1 / psy_rd=1.00:0.00 / mixed_ref=1 / me_range=16 / chroma_me=1 / trellis=1 / 8x8dct=1 / cqm=0 / deadzone=21,11 / fast_pskip=1 / chroma_qp_offset=-2 / threads=25 / lookahead_threads=4 / sliced_threads=0 / nr=0 / decimate=1 / interlaced=0 / bluray_compat=0 / constrained_intra=0 / bframes=3 / b_pyramid=2 / b_adapt=2 / b_bias=0 / direct=3 / weightb=1 / open_gop=0 / weightp=2 / keyint=240 / keyint_min=24 / scenecut=40 / intra_refresh=0 / rc_lookahead=50 / rc=abr / mbtree=1 / bitrate=3500 / ratetol=1.0 / qcomp=0.60 / qpmin=0 / qpmax=69 / qpstep=4 / vbv_maxrate=62500 / vbv_bufsize=78125 / nal_hrd=none / filler=0 / ip_ratio=1.40 / aq=1:1.00
    Language                                 : English
    Default                                  : Yes
    Forced                                   : No
    Color range                              : Limited
    Color primaries                          : BT.709
    Transfer characteristics                 : BT.709
    Matrix coefficients                      : BT.709
    Statistics Tags Issue                    : mkvmerge v15.0.0 ('Duel with the Devil') 64-bit 2018-09-27 01:33:19 / mkvmerge v15.0.0 ('Duel with the Devil') 64-bit 2018-09-27 01:33:19 / UTC 2018-09-27T00:12:21Z
    FromStats_BitRate                        : 3267743
    FromStats_Duration                       : 01:33:45.662000000
    FromStats_FrameCount                     : 134881
    FromStats_StreamSize                     : 2297902756

    Audio #1
    ID                                       : 2
    Format                                   : AC-3
    Format/Info                              : Audio Coding 3
    Format settings, Endianness              : Big
    Codec ID                                 : A_AC3
    Duration                                 : 1 h 33 min
    Bit rate mode                            : Constant
    Bit rate                                 : 448 kb/s
    Channel(s)                               : 6 channels
    Channel positions                        : Front: L C R, Side: L R, LFE
    Sampling rate                            : 48.0 kHz
    Frame rate                               : 31.250 FPS (1536 SPF)
    Bit depth                                : 16 bits
    Compression mode                         : Lossy
    Delay relative to video                  : -5 ms
    Stream size                              : 300 MiB (10%)
    Language                                 : Spanish
    Service kind                             : Complete Main
    Default                                  : Yes
    Forced                                   : No
    Statistics Tags Issue                    : mkvmerge v15.0.0 ('Duel with the Devil') 64-bit 2018-09-27 01:33:19 / mkvmerge v15.0.0 ('Duel with the Devil') 64-bit 2018-09-27 01:33:19 / UTC 2018-09-27T00:12:21Z
    FromStats_BitRate                        : 448000
    FromStats_Duration                       : 01:33:45.632000000
    FromStats_FrameCount                     : 175801
    FromStats_StreamSize                     : 315035392

    Audio #2
    ID                                       : 3
    Format                                   : AC-3
    Format/Info                              : Audio Coding 3
    Format settings, Endianness              : Big
    Codec ID                                 : A_AC3
    Duration                                 : 1 h 33 min
    Bit rate mode                            : Constant
    Bit rate                                 : 640 kb/s
    Channel(s)                               : 6 channels
    Channel positions                        : Front: L C R, Side: L R, LFE
    Sampling rate                            : 48.0 kHz
    Frame rate                               : 31.250 FPS (1536 SPF)
    Bit depth                                : 16 bits
    Compression mode                         : Lossy
    Delay relative to video                  : -5 ms
    Stream size                              : 429 MiB (15%)
    Language                                 : English
    Service kind                             : Complete Main
    Default                                  : No
    Forced                                   : No
    Statistics Tags Issue                    : mkvmerge v15.0.0 ('Duel with the Devil') 64-bit 2018-09-27 01:33:19 / mkvmerge v15.0.0 ('Duel with the Devil') 64-bit 2018-09-27 01:33:19 / UTC 2018-09-27T00:12:21Z
    FromStats_BitRate                        : 640000
    FromStats_Duration                       : 01:33:45.632000000
    FromStats_FrameCount                     : 175801
    FromStats_StreamSize                     : 450050560

    Text
    ID                                       : 4
    Format                                   : UTF-8
    Codec ID                                 : S_TEXT/UTF8
    Codec ID/Info                            : UTF-8 Plain Text
    Language                                 : Spanish
    Default                                  : No
    Forced                                   : No
    Statistics Tags Issue                    : mkvmerge v15.0.0 ('Duel with the Devil') 64-bit 2018-09-27 01:33:19 / mkvmerge v15.0.0 ('Duel with the Devil') 64-bit 2018-09-27 01:33:19 / UTC 2018-09-27T00:12:21Z
    FromStats_BitRate                        : 64
    FromStats_Duration                       : 01:25:09.381000000
    FromStats_FrameCount                     : 1187
    FromStats_StreamSize                     : 41257

    Menu
    00:00:00.000                             : :00:00:00.000
    00:05:09.684                             : :00:05:09.684
    00:13:06.077                             : :00:13:06.077
    00:17:40.309                             : :00:17:40.309
    00:22:09.620                             : :00:22:09.620
    00:28:00.095                             : :00:28:00.095
    00:33:35.055                             : :00:33:35.055
    00:38:58.503                             : :00:38:58.503
    00:42:21.873                             : :00:42:21.873
    00:46:53.019                             : :00:46:53.019
    00:52:45.871                             : :00:52:45.871
    00:56:43.567                             : :00:56:43.567
    01:00:13.652                             : :01:00:13.652
    01:04:05.258                             : :01:04:05.258
    01:08:45.288                             : :01:08:45.288
    01:13:52.720                             : :01:13:52.720
    01:18:17.693                             : :01:18:17.693
    01:24:49.751                             : :01:24:49.751

  • Peso: 2.85 GiB

Sinopsis

Un thriller de futuro cercano, ambientado en su propio universo del crimen, “Hotel Artemis” sigue a una enfermera que dirige un hospital subterráneo para los criminales más siniestros de Los Ángeles, y descubre que uno de sus pacientes está realmente allí para asesinar a otro.

Ficha técnica

Video trailer de la película

Enlaces de descarga

Rip de Bluray

Descargar Hotel Artemis (2018) 1080p Latino




Aportes de DPeliculasHDmega la pass es:dpeliculashdmega.org Aportes de CinemaniaHD la pass es:cinemaniahdd.com
Guardado en : Acción , Ciencia ficción , Suspense

Películas relacionadas

  • The Night Comes For Us (2018) NF 1080p Latino

    2018
    The Night Comes For Us (2018) NF 1080p Latino

    1.0 2h 1m 2018

    The Night Comes For Us (2018) NF 1080p Latino; Mega, Google Drive. Un antiguo sicario debe proteger a...

    Director: Timo Tjahjanto

    Género: Acción

    Actores: Zack Lee

  • Illang: La brigada del lobo (2018) NF 1080p Latino

    2018
    Illang: La brigada del lobo (2018) NF 1080p Latino

    1.0 2h 19m 2018

    Descargar Illang: La brigada del lobo (2018) NF 1080p Latino; Mega, Google Drive. Basada en el anime...

    Director: Kim Jee-woon

    Género: Acción

    Actores: Shin Eun-soo

  • Mentes poderosas (2018) 1080p Latino

    2018
    Mentes poderosas (2018) 1080p Latino

    1.0 1h 45m 2018

    Descargar Mentes poderosas (2018) 1080p Latino; Mega, Google Drive. Encarcelados en un mundo adulto...

    Director: Jennifer Yuh Nelson

    Género: Ciencia ficción

    Actores: William Walker

  • Paciente Cero (2018) Full 1080p Latino

    2018
    Paciente Cero (2018) Full 1080p Latino

    3.7 1h 26m 2018

    Paciente Cero (2018) Full 1080p Latino; Mega, Google Drive. Tras una pandemia sin precedentes, la Humanidad...

    Director: Stefan Ruzowitzky

    Género: Acción

    Actores: Yumiko Hanasaka

Comentarios 1
  • math - 27 septiembre, 2018

    Muchas Gracias. cinemaniahdd . Podrían subir “DISTRICT 9” .