Honey: Levántate y baila (2018) WEBRip NF 1080p Latino

455 vistas
1 estrella2 estrellas3 estrellas4 estrellas5 estrellas (1 votos, promedio: 1,00 de 5)
Cargando…

Información de Honey: Levántate y baila (2018) WEBRip NF 1080p Latino

Datos de la película

  • Calidad: WEBDL
  • Audio: Español Latino AC3 5.1 Netflix - Ingles AC3 5.1 Netflix
  • Subtitulos: Español Latino SRT- FORZADOS SRT
  • Resolución: 1920x1080p
  • Formato: MKV
  • Codec: H.264
  • Encoder: Dracarys
  • Mediainfo: Clic para Mostrar Datos Ver
  • Format                                   : Matroska
    Format version                           : Version 4 / Version 2
    File size                                : 2.94 GiB
    Duration                                 : 1 h 40 min
    Overall bit rate                         : 4 207 kb/s
    Movie name                               : CinemaniaHDD.NET
    Encoded date                             : UTC 2018-05-22 02:57:21 / UTC 2018-05-22T01:15:07Z
    Writing application                      : mkvmerge v17.0.0 ('Be Ur Friend') 64-bit
    Writing library                          : libebml v1.3.5 + libmatroska v1.4.8 / Lavf57.7.2

    Video
    ID                                       : 1
    Format                                   : AVC
    Format/Info                              : Advanced Video Codec
    Format profile                           : High@L4.1
    Format settings                          : CABAC / 4 Ref Frames
    Format settings, CABAC                   : Yes
    Format settings, RefFrames               : 4 frames
    Codec ID                                 : V_MPEG4/ISO/AVC
    Duration                                 : 1 h 40 min
    Bit rate                                 : 3 500 kb/s
    Width                                    : 1 920 pixels
    Height                                   : 1 080 pixels
    Display aspect ratio                     : 16:9
    Frame rate mode                          : Constant
    Frame rate                               : 23.976 (24000/1001) FPS
    Color space                              : YUV
    Chroma subsampling                       : 4:2:0
    Bit depth                                : 8 bits
    Scan type                                : Progressive
    Bits/(Pixel*Frame)                       : 0.070
    Stream size                              : 2.35 GiB (80%)
    Writing library                          : x264 core 148 r2708 86b7198
    Encoding settings                        : cabac=1 / ref=4 / deblock=1:0:0 / analyse=0x3:0x113 / me=umh / subme=8 / psy=1 / psy_rd=1.00:0.00 / mixed_ref=1 / me_range=16 / chroma_me=1 / trellis=1 / 8x8dct=1 / cqm=0 / deadzone=21,11 / fast_pskip=1 / chroma_qp_offset=-2 / threads=34 / lookahead_threads=5 / sliced_threads=0 / nr=0 / decimate=1 / interlaced=0 / bluray_compat=0 / constrained_intra=0 / bframes=3 / b_pyramid=2 / b_adapt=2 / b_bias=0 / direct=3 / weightb=1 / open_gop=0 / weightp=2 / keyint=240 / keyint_min=24 / scenecut=40 / intra_refresh=0 / rc_lookahead=50 / rc=abr / mbtree=1 / bitrate=3500 / ratetol=1.0 / qcomp=0.60 / qpmin=0 / qpmax=69 / qpstep=4 / vbv_maxrate=62500 / vbv_bufsize=78125 / nal_hrd=none / filler=0 / ip_ratio=1.40 / aq=1:1.00
    Default                                  : Yes
    Forced                                   : No
    Color range                              : Limited
    Color primaries                          : BT.709
    Transfer characteristics                 : BT.709
    Matrix coefficients                      : BT.709
    Statistics Tags Issue                    : mkvmerge v17.0.0 ('Be Ur Friend') 64-bit 2018-05-22 02:57:21 / mkvmerge v17.0.0 ('Be Ur Friend') 64-bit 2018-05-22 02:57:21 / UTC 2018-05-22T01:15:07Z
    FromStats_BitRate                        : 3437064
    FromStats_Duration                       : 01:40:08.253000000
    FromStats_FrameCount                     : 144054
    FromStats_StreamSize                     : 2581344335

    Audio #1
    ID                                       : 2
    Format                                   : AC-3
    Format/Info                              : Audio Coding 3
    Format settings, Endianness              : Big
    Codec ID                                 : A_AC3
    Duration                                 : 1 h 40 min
    Bit rate mode                            : Constant
    Bit rate                                 : 384 kb/s
    Channel(s)                               : 6 channels
    Channel positions                        : Front: L C R, Side: L R, LFE
    Sampling rate                            : 48.0 kHz
    Frame rate                               : 31.250 FPS (1536 SPF)
    Bit depth                                : 16 bits
    Compression mode                         : Lossy
    Delay relative to video                  : -5 ms
    Stream size                              : 275 MiB (9%)
    Title                                    : Surround
    Language                                 : Spanish
    Service kind                             : Complete Main
    Default                                  : Yes
    Forced                                   : No
    Statistics Tags Issue                    : mkvmerge v17.0.0 ('Be Ur Friend') 64-bit 2018-05-22 02:57:21 / mkvmerge v17.0.0 ('Be Ur Friend') 64-bit 2018-05-22 02:57:21 / UTC 2018-05-22T01:15:07Z
    FromStats_BitRate                        : 384000
    FromStats_Duration                       : 01:40:09.120000000
    FromStats_FrameCount                     : 187785
    FromStats_StreamSize                     : 288437760

    Audio #2
    ID                                       : 3
    Format                                   : AC-3
    Format/Info                              : Audio Coding 3
    Format settings, Endianness              : Big
    Codec ID                                 : A_AC3
    Duration                                 : 1 h 40 min
    Bit rate mode                            : Constant
    Bit rate                                 : 384 kb/s
    Channel(s)                               : 6 channels
    Channel positions                        : Front: L C R, Side: L R, LFE
    Sampling rate                            : 48.0 kHz
    Frame rate                               : 31.250 FPS (1536 SPF)
    Bit depth                                : 16 bits
    Compression mode                         : Lossy
    Delay relative to video                  : -5 ms
    Stream size                              : 275 MiB (9%)
    Title                                    : Surround
    Language                                 : English
    Service kind                             : Complete Main
    Default                                  : No
    Forced                                   : No
    Statistics Tags Issue                    : mkvmerge v17.0.0 ('Be Ur Friend') 64-bit 2018-05-22 02:57:21 / mkvmerge v17.0.0 ('Be Ur Friend') 64-bit 2018-05-22 02:57:21 / UTC 2018-05-22T01:15:07Z
    FromStats_BitRate                        : 384000
    FromStats_Duration                       : 01:40:08.064000000
    FromStats_FrameCount                     : 187752
    FromStats_StreamSize                     : 288387072

    Text #1
    ID                                       : 4
    Format                                   : UTF-8
    Codec ID                                 : S_TEXT/UTF8
    Codec ID/Info                            : UTF-8 Plain Text
    Language                                 : Spanish
    Default                                  : Yes
    Forced                                   : No
    Statistics Tags Issue                    : mkvmerge v17.0.0 ('Be Ur Friend') 64-bit 2018-05-22 02:57:21 / mkvmerge v17.0.0 ('Be Ur Friend') 64-bit 2018-05-22 02:57:21 / UTC 2018-05-22T01:15:07Z
    FromStats_BitRate                        : 0
    FromStats_Duration                       : 01:29:14.078000000
    FromStats_FrameCount                     : 21
    FromStats_StreamSize                     : 468

    Text #2
    ID                                       : 5
    Format                                   : UTF-8
    Codec ID                                 : S_TEXT/UTF8
    Codec ID/Info                            : UTF-8 Plain Text
    Language                                 : Spanish
    Default                                  : No
    Forced                                   : No
    Statistics Tags Issue                    : mkvmerge v17.0.0 ('Be Ur Friend') 64-bit 2018-05-22 02:57:21 / mkvmerge v17.0.0 ('Be Ur Friend') 64-bit 2018-05-22 02:57:21 / UTC 2018-05-22T01:15:07Z
    FromStats_BitRate                        : 56
    FromStats_Duration                       : 01:34:12.153000000
    FromStats_FrameCount                     : 1147
    FromStats_StreamSize                     : 40065

  • Peso: 2.94 GiB

Sinopsis

La bailarina callejera Skyler está decidida a probarse para el mismo equipo de baile que su hermana formalmente entrenada Tosha para competir por una beca universitaria, pero es desanimada por su familia y su novio quienes dudan que su talento crudo sea suficiente para que gane.

Ficha técnica

  • Titulo original: Honey: Rise Up and Dance
  • Fecha de lanzamiento: 03-04-2018
  • Director: Bille Woodruff
  • Género: Drama, Música
  • Puntuación: 1.0 1 votos
  • Duración:
    1 h 40 min

Video trailer de la película

Enlaces de descarga

Rip de Bluray

Descargar Honey: Levántate y baila (2018) WEBRip NF 1080p Latino




Aportes de DPeliculasHDmega la pass es:dpeliculashdmega.org Aportes de CinemaniaHD la pass es:cinemaniahdd.com
Guardado en : Drama , Música

Películas relacionadas

  • Sicario (2015) Full 1080p Latino

    2015
    Sicario (2015) Full 1080p Latino

    5.0 2h 1m 2015

    En la zona fronteriza que se extiende entre Estados Unidos y México la joven Kate Macer, una idealista...

    Director: Judi Townsend

    Género: Acción

    Actores: Victor Garber

  • Fahrenheit 451 (2018) Full 1080p Latino

    2018
    Fahrenheit 451 (2018) Full 1080p Latino

    5.0 1h 36m 2018

    Michael B. Jordan y Michael Shannon protagonizan esta adaptación de HBO de la clásica novela distópica...

    Director: Ramin Bahrani

    Género: Ciencia ficción

    Actores: Tim Post

Comentarios 0