Hermanastros (2008) Full 1080p Latino

833 vistas
1 estrella2 estrellas3 estrellas4 estrellas5 estrellas (2 votos, promedio: 5,00 de 5)
Cargando…

Información de Hermanastros (2008) Full 1080p Latino

Datos de la película

  • Calidad: Full 1080p
  • Audio: Español Latino AC3 5.1 BLURAY - Ingles AC3 5.1 BLURAY
  • Subtitulos: Español Latino PGS - Ingles PGS
  • Resolución: 1920x1080p
  • Formato: MKV
  • Codec: H.264
  • Encoder: Dracarys
  • Mediainfo: Clic para Mostrar Datos Ver
  • Format                                   : Matroska
    Format version                           : Version 4 / Version 2
    File size                                : 8.51 GiB
    Duration                                 : 1 h 45 min
    Overall bit rate                         : 11.5 Mb/s
    Movie name                               : CinemaniaHDD.com
    Encoded date                             : UTC 2018-05-02 04:34:47 / UTC 2018-05-01T06:56:58Z
    Writing application                      : mkvmerge v15.0.0 ('Duel with the Devil') 64-bit
    Writing library                          : libebml v1.3.5 + libmatroska v1.4.5 / Lavf57.7.2

    Video
    ID                                       : 1
    Format                                   : AVC
    Format/Info                              : Advanced Video Codec
    Format profile                           : High@L4.1
    Format settings                          : CABAC / 4 Ref Frames
    Format settings, CABAC                   : Yes
    Format settings, RefFrames               : 4 frames
    Codec ID                                 : V_MPEG4/ISO/AVC
    Duration                                 : 1 h 45 min
    Bit rate                                 : 10.0 Mb/s
    Width                                    : 1 920 pixels
    Height                                   : 1 080 pixels
    Display aspect ratio                     : 16:9
    Frame rate mode                          : Constant
    Frame rate                               : 23.976 (24000/1001) FPS
    Color space                              : YUV
    Chroma subsampling                       : 4:2:0
    Bit depth                                : 8 bits
    Scan type                                : Progressive
    Bits/(Pixel*Frame)                       : 0.202
    Stream size                              : 7.39 GiB (87%)
    Title                                    : Hermanastros (2008) Full 1080p Latino
    Writing library                          : x264 core 148 r2708 86b7198
    Encoding settings                        : cabac=1 / ref=4 / deblock=1:0:0 / analyse=0x3:0x133 / me=esa / subme=9 / psy=1 / psy_rd=1.00:0.00 / mixed_ref=1 / me_range=16 / chroma_me=1 / trellis=2 / 8x8dct=1 / cqm=0 / deadzone=21,11 / fast_pskip=1 / chroma_qp_offset=-2 / threads=34 / lookahead_threads=2 / sliced_threads=0 / nr=0 / decimate=1 / interlaced=0 / bluray_compat=0 / constrained_intra=0 / bframes=3 / b_pyramid=2 / b_adapt=2 / b_bias=0 / direct=3 / weightb=1 / open_gop=0 / weightp=2 / keyint=240 / keyint_min=24 / scenecut=40 / intra_refresh=0 / rc_lookahead=60 / rc=crf / mbtree=1 / crf=20.0 / qcomp=0.60 / qpmin=0 / qpmax=69 / qpstep=4 / vbv_maxrate=62500 / vbv_bufsize=78125 / crf_max=0.0 / nal_hrd=none / filler=0 / ip_ratio=1.40 / aq=1:1.00
    Language                                 : English
    Default                                  : Yes
    Forced                                   : No
    Color range                              : Limited
    Color primaries                          : BT.709
    Transfer characteristics                 : BT.709
    Matrix coefficients                      : BT.709
    Statistics Tags Issue                    : mkvmerge v15.0.0 ('Duel with the Devil') 64-bit 2018-05-02 04:34:47 / mkvmerge v15.0.0 ('Duel with the Devil') 64-bit 2018-05-02 04:34:47 / UTC 2018-05-01T06:56:58Z
    FromStats_BitRate                        : 10190652
    FromStats_Duration                       : 01:45:32.910000000
    FromStats_FrameCount                     : 151838
    FromStats_StreamSize                     : 8067060260

    Audio #1
    ID                                       : 2
    Format                                   : AC-3
    Format/Info                              : Audio Coding 3
    Format settings, Endianness              : Big
    Codec ID                                 : A_AC3
    Duration                                 : 1 h 45 min
    Bit rate mode                            : Constant
    Bit rate                                 : 640 kb/s
    Channel(s)                               : 6 channels
    Channel positions                        : Front: L C R, Side: L R, LFE
    Sampling rate                            : 48.0 kHz
    Frame rate                               : 31.250 FPS (1536 SPF)
    Bit depth                                : 16 bits
    Compression mode                         : Lossy
    Stream size                              : 483 MiB (6%)
    Language                                 : Spanish
    Service kind                             : Complete Main
    Default                                  : Yes
    Forced                                   : No
    Statistics Tags Issue                    : mkvmerge v15.0.0 ('Duel with the Devil') 64-bit 2018-05-02 04:34:47 / mkvmerge v15.0.0 ('Duel with the Devil') 64-bit 2018-05-02 04:34:47 / UTC 2018-05-01T06:56:58Z
    FromStats_BitRate                        : 640000
    FromStats_Duration                       : 01:45:32.960000000
    FromStats_FrameCount                     : 197905
    FromStats_StreamSize                     : 506636800

    Audio #2
    ID                                       : 3
    Format                                   : AC-3
    Format/Info                              : Audio Coding 3
    Format settings, Endianness              : Big
    Codec ID                                 : A_AC3
    Duration                                 : 1 h 45 min
    Bit rate mode                            : Constant
    Bit rate                                 : 640 kb/s
    Channel(s)                               : 6 channels
    Channel positions                        : Front: L C R, Side: L R, LFE
    Sampling rate                            : 48.0 kHz
    Frame rate                               : 31.250 FPS (1536 SPF)
    Bit depth                                : 16 bits
    Compression mode                         : Lossy
    Stream size                              : 483 MiB (6%)
    Language                                 : English
    Service kind                             : Complete Main
    Default                                  : No
    Forced                                   : No
    Statistics Tags Issue                    : mkvmerge v15.0.0 ('Duel with the Devil') 64-bit 2018-05-02 04:34:47 / mkvmerge v15.0.0 ('Duel with the Devil') 64-bit 2018-05-02 04:34:47 / UTC 2018-05-01T06:56:58Z
    FromStats_BitRate                        : 640000
    FromStats_Duration                       : 01:45:32.960000000
    FromStats_FrameCount                     : 197905
    FromStats_StreamSize                     : 506636800

    Text #1
    ID                                       : 4
    Format                                   : PGS
    Muxing mode                              : zlib
    Codec ID                                 : S_HDMV/PGS
    Codec ID/Info                            : Picture based subtitle format used on BDs/HD-DVDs
    Language                                 : English
    Default                                  : No
    Forced                                   : No
    Statistics Tags Issue                    : mkvmerge v15.0.0 ('Duel with the Devil') 64-bit 2018-05-02 04:34:47 / mkvmerge v15.0.0 ('Duel with the Devil') 64-bit 2018-05-02 04:34:47 / UTC 2018-05-01T06:56:58Z
    FromStats_BitRate                        : 49143
    FromStats_Duration                       : 01:44:16.901000000
    FromStats_FrameCount                     : 3415
    FromStats_StreamSize                     : 38436118

    Text #2
    ID                                       : 5
    Format                                   : PGS
    Muxing mode                              : zlib
    Codec ID                                 : S_HDMV/PGS
    Codec ID/Info                            : Picture based subtitle format used on BDs/HD-DVDs
    Language                                 : Spanish
    Default                                  : No
    Forced                                   : No
    Statistics Tags Issue                    : mkvmerge v15.0.0 ('Duel with the Devil') 64-bit 2018-05-02 04:34:47 / mkvmerge v15.0.0 ('Duel with the Devil') 64-bit 2018-05-02 04:34:47 / UTC 2018-05-01T06:56:58Z
    FromStats_BitRate                        : 43308
    FromStats_Duration                       : 01:45:04.574000000
    FromStats_FrameCount                     : 3367
    FromStats_StreamSize                     : 34129919

    Text #3
    ID                                       : 6
    Format                                   : PGS
    Muxing mode                              : zlib
    Codec ID                                 : S_HDMV/PGS
    Codec ID/Info                            : Picture based subtitle format used on BDs/HD-DVDs
    Title                                    : Forzados
    Language                                 : Spanish
    Default                                  : Yes
    Forced                                   : Yes
    Statistics Tags Issue                    : mkvmerge v15.0.0 ('Duel with the Devil') 64-bit 2018-05-02 04:34:47 / mkvmerge v15.0.0 ('Duel with the Devil') 64-bit 2018-05-02 04:34:47 / UTC 2018-05-01T06:56:58Z
    FromStats_BitRate                        : 55152
    FromStats_Duration                       : 01:45:28.681000000
    FromStats_FrameCount                     : 4371
    FromStats_StreamSize                     : 43630505

    Menu
    00:00:00.000                             : :Chapter 1
    00:03:52.441                             : :Chapter 2
    00:13:46.951                             : :Chapter 3
    00:19:01.641                             : :Chapter 4
    00:26:13.489                             : :Chapter 5
    00:29:49.955                             : :Chapter 6
    00:37:51.394                             : :Chapter 7
    00:45:36.525                             : :Chapter 8
    00:51:24.206                             : :Chapter 9
    00:57:11.553                             : :Chapter 10
    01:04:27.906                             : :Chapter 11
    01:12:58.916                             : :Chapter 12
    01:17:38.946                             : :Chapter 13
    01:21:43.440                             : :Chapter 14
    01:28:40.982                             : :Chapter 15
    01:36:46.384                             : :Chapter 16

  • Peso: 8.51 GiB

Sinopsis

Aunque Brennan Huff (Will Ferrell) tiene casi cuarenta años, sigue viviendo con su madre Nancy (Mary Steenburgen) y se conforma con conseguir, de vez en cuando, empleos esporádicos. Dale Doback (John C. Reilly), es un parado profesional de cuarenta años que vive con su padre, Robert (Richard Jenkins). Cuando Nancy y Robert se casan, los dos parásitos se ven obligados a compartir casa, pero, debido a su narcisismo y a su agresiva pereza se establece entre ellos una competencia que llega a enturbiar la relación entre sus padres.

Ficha técnica

Video trailer de la película

Enlaces de descarga

Rip de Bluray

Descargar Hermanastros (2008) Full 1080p Latino




Aportes de DPeliculasHDmega la pass es:dpeliculashdmega.org Aportes de CinemaniaHD la pass es:cinemaniahdd.com
Guardado en : Comedia , FULL 1080p Plateadas

Películas relacionadas

  • Love on the Sidelines (2016) WEBDL 1080p Latino

    2016
    Love on the Sidelines (2016) WEBDL 1080p Latino

    0.0 1h 24m 2016

    Una joven sin buena suerte que cae en un trabajo como asistente personal de un mariscal de campo estrellado...

    Director: Terry Ingram

    Género: Comedia

    Actores: Victor Zinck Jr.

  • Sicario (2015) Full 1080p Latino

    2015
    Sicario (2015) Full 1080p Latino

    5.0 2h 1m 2015

    En la zona fronteriza que se extiende entre Estados Unidos y México la joven Kate Macer, una idealista...

    Director: Judi Townsend

    Género: Acción

    Actores: Victor Garber

  • Fahrenheit 451 (2018) Full 1080p Latino

    2018
    Fahrenheit 451 (2018) Full 1080p Latino

    5.0 1h 36m 2018

    Michael B. Jordan y Michael Shannon protagonizan esta adaptación de HBO de la clásica novela distópica...

    Director: Ramin Bahrani

    Género: Ciencia ficción

    Actores: Tim Post

Comentarios 0