Heidi (2015) 1080p Latino

1.994 vistas
1 estrella2 estrellas3 estrellas4 estrellas5 estrellas (2 votos, promedio: 4,50 de 5)
Cargando…

Información de Heidi (2015) 1080p Latino

Datos de la película

  • Calidad: 1080p
  • Audio: Se especifica abajo de la Sinopsis
  • Subtitulos: Español Latino SRT - Ingles SRT
  • Resolución: 1920x800p
  • Formato: MKV
  • Codec: H.264
  • Encoder: Dpelis
  • Mediainfo: Clic para Mostrar Datos Ver
  • Heidi.2015.1080p.LATINO.mkv
    Format                      : Matroska
    Format version              : Version 4 / Version 2
    File size                   : 3.28 GiB
    Duration                    : 1 h 50 min
    Overall bit rate            : 4 243 kb/s
    Encoded date                : UTC 2017-06-07 01:27:28 / UTC 2017-06-06T21:05:26Z
    Writing application         : mkvmerge v10.0.0 ('To Drown In You') 64bit
    Writing library             : libebml v1.3.4 + libmatroska v1.4.5 / Lavf57.7.2

    Video
    ID                          : 1
    Format                      : AVC
    Format/Info                 : Advanced Video Codec
    Format profile              : High@L4.1
    Format settings, CABAC      : Yes
    Format settings, ReFrames   : 4 frames
    Codec ID                    : V_MPEG4/ISO/AVC
    Duration                    : 1 h 50 min
    Bit rate                    : 3 500 kb/s
    Width                       : 1 920 pixels
    Height                      : 802 pixels
    Display aspect ratio        : 2.40:1
    Frame rate mode             : Constant
    Frame rate                  : 24.000 FPS
    Color space                 : YUV
    Chroma subsampling          : 4:2:0
    Bit depth                   : 8 bits
    Scan type                   : Progressive
    Bits/(Pixel*Frame)          : 0.095
    Stream size                 : 2.62 GiB (80%)
    Writing library             : x264 core 148 r2708 86b7198
    Encoding settings           : cabac=1 / ref=3 / deblock=1:0:0 / analyse=0x3:0x113 / me=hex / subme=7 / psy=1 / psy_rd=1.00:0.00 / mixed_ref=1 / me_range=16 / chroma_me=1 / trellis=1 / 8x8dct=1 / cqm=0 / deadzone=21,11 / fast_pskip=1 / chroma_qp_offset=-2 / threads=12 / lookahead_threads=2 / sliced_threads=0 / nr=0 / decimate=1 / interlaced=0 / bluray_compat=0 / constrained_intra=0 / bframes=3 / b_pyramid=2 / b_adapt=1 / b_bias=0 / direct=1 / weightb=1 / open_gop=0 / weightp=2 / keyint=240 / keyint_min=24 / scenecut=40 / intra_refresh=0 / rc_lookahead=40 / rc=abr / mbtree=1 / bitrate=3500 / ratetol=1.0 / qcomp=0.60 / qpmin=0 / qpmax=69 / qpstep=4 / vbv_maxrate=62500 / vbv_bufsize=78125 / nal_hrd=none / filler=0 / ip_ratio=1.40 / aq=1:1.00
    Default                     : Yes
    Forced                      : No
    Color range                 : Limited
    Color primaries             : BT.709
    Transfer characteristics    : BT.709
    Matrix coefficients         : BT.709
    Statistics Tags Issue       : mkvmerge v10.0.0 ('To Drown In You') 64bit 2017-06-07 01:27:28 / mkvmerge v10.0.0 ('To Drown In You') 64bit 2017-06-07 01:27:28 / UTC 2017-06-06T21:05:26Z
    FromStats_BitRate           : 3472337
    FromStats_Duration          : 01:50:50.292000000
    FromStats_FrameCount        : 159607
    FromStats_StreamSize        : 2886507536

    Audio #1
    ID                          : 2
    Format                      : AC-3
    Format/Info                 : Audio Coding 3
    Format settings, Endianness : Big
    Codec ID                    : A_AC3
    Duration                    : 1 h 50 min
    Bit rate mode               : Constant
    Bit rate                    : 384 kb/s
    Channel(s)                  : 6 channels
    Channel positions           : Front: L C R, Side: L R, LFE
    Sampling rate               : 48.0 kHz
    Frame rate                  : 31.250 FPS (1536 spf)
    Bit depth                   : 16 bits
    Compression mode            : Lossy
    Delay relative to video     : -5 ms
    Stream size                 : 304 MiB (9%)
    Title                       : Surround
    Language                    : Spanish
    Service kind                : Complete Main
    Default                     : Yes
    Forced                      : No
    Statistics Tags Issue       : mkvmerge v10.0.0 ('To Drown In You') 64bit 2017-06-07 01:27:28 / mkvmerge v10.0.0 ('To Drown In You') 64bit 2017-06-07 01:27:28 / UTC 2017-06-06T21:05:26Z
    FromStats_BitRate           : 384000
    FromStats_Duration          : 01:50:50.112000000
    FromStats_FrameCount        : 207816
    FromStats_StreamSize        : 319205376

    Audio #2
    ID                          : 3
    Format                      : AC-3
    Format/Info                 : Audio Coding 3
    Format settings, Endianness : Big
    Codec ID                    : A_AC3
    Duration                    : 1 h 50 min
    Bit rate mode               : Constant
    Bit rate                    : 384 kb/s
    Channel(s)                  : 6 channels
    Channel positions           : Front: L C R, Side: L R, LFE
    Sampling rate               : 48.0 kHz
    Frame rate                  : 31.250 FPS (1536 spf)
    Bit depth                   : 16 bits
    Compression mode            : Lossy
    Delay relative to video     : -5 ms
    Stream size                 : 304 MiB (9%)
    Title                       : Surround
    Language                    : German
    Service kind                : Complete Main
    Default                     : No
    Forced                      : No
    Statistics Tags Issue       : mkvmerge v10.0.0 ('To Drown In You') 64bit 2017-06-07 01:27:28 / mkvmerge v10.0.0 ('To Drown In You') 64bit 2017-06-07 01:27:28 / UTC 2017-06-06T21:05:26Z
    FromStats_BitRate           : 384000
    FromStats_Duration          : 01:50:50.272000000
    FromStats_FrameCount        : 207821
    FromStats_StreamSize        : 319213056

    Text #1
    ID                          : 4
    Format                      : UTF-8
    Codec ID                    : S_TEXT/UTF8
    Codec ID/Info               : UTF-8 Plain Text
    Language                    : Spanish
    Default                     : Yes
    Forced                      : No
    Statistics Tags Issue       : mkvmerge v10.0.0 ('To Drown In You') 64bit 2017-06-07 01:27:28 / mkvmerge v10.0.0 ('To Drown In You') 64bit 2017-06-07 01:27:28 / UTC 2017-06-06T21:05:26Z
    FromStats_BitRate           : 37
    FromStats_Duration          : 01:43:21.833000000
    FromStats_FrameCount        : 1006
    FromStats_StreamSize        : 29012

    Text #2
    ID                          : 5
    Format                      : UTF-8
    Codec ID                    : S_TEXT/UTF8
    Codec ID/Info               : UTF-8 Plain Text
    Language                    : English
    Default                     : No
    Forced                      : No
    Statistics Tags Issue       : mkvmerge v10.0.0 ('To Drown In You') 64bit 2017-06-07 01:27:28 / mkvmerge v10.0.0 ('To Drown In You') 64bit 2017-06-07 01:27:28 / UTC 2017-06-06T21:05:26Z
    FromStats_BitRate           : 32
    FromStats_Duration          : 01:42:04.374000000
    FromStats_FrameCount        : 918
    FromStats_StreamSize        : 24896

    Menu
    00:00:00.000                : :Chapter 1
    00:09:16.125                : :Chapter 2
    00:19:48.083                : :Chapter 3
    00:28:50.458                : :Chapter 4
    00:42:06.375                : :Chapter 5
    00:51:45.917                : :Chapter 6
    00:59:43.375                : :Chapter 7
    01:11:45.500                : :Chapter 8
    01:22:32.167                : :Chapter 9
    01:34:27.375                : :Chapter 10

  • Peso: 3.28 GB

Sinopsis

Heidi (Anuk Steffe) es una huérfana de ocho años, criada por su abuelo (Bruno Ganz) en las montañas suizas. Junto a su amigo, Pedro el cabrero (Quirin Agrippi), cuida de las cabras del abuelo y disfruta de la libertad en la montaña. Pero un día su tía Dete (Anna Schinz) decide llevársela a la ciudad de Frankfurt para ser educada en una familia adinerada. Allí hará amistad con la hija inválida de la familia, Klara (Isabelle Ottmann).

 

Español Latino AC3 5.1 – German AC3 5.1 

Ficha técnica

  • Titulo original: Heidi
  • Fecha de lanzamiento: 03-12-2015 (Germany, Switzerland)
  • Director: Alain Gsponer
  • Género: Aventura, Familia
  • Puntuación: 4.5 2 votos
  • Duración:
    1h 50m

Video trailer de la película

Enlaces de descarga

Aportes de DPeliculasHDmega la pass es:dpeliculashdmega.org Aportes de CinemaniaHD la pass es:cinemaniahdd.com
Guardado en : Aventura , Familia

Películas relacionadas

Comentarios 1
  • edward - 09 junio, 2017

    Muchas gracias a descargar ya!