Hasta pronto Christopher Robin (2017) 1080p Latino

576 vistas
1 estrella2 estrellas3 estrellas4 estrellas5 estrellas (Ninguna valoración todavía)
Cargando…

Información de Hasta pronto Christopher Robin (2017) 1080p Latino

Datos de la película

  • Calidad: 1080p
  • Audio: Español Latino AC3 5.1 BLURAY - Ingles AC3 5.1 BLURAY
  • Subtitulos: Español Latino SRT- FORZADOS SRT
  • Resolución: 1920X1036p
  • Formato: MKV
  • Codec: H.264
  • Encoder: CinemaniaHD
  • Mediainfo: Clic para Mostrar Datos Ver
  • Format                                   : Matroska
    Format version                           : Version 4 / Version 2
    File size                                : 3.17 GiB
    Duration                                 : 1 h 47 min
    Overall bit rate                         : 4 235 kb/s
    Movie name                               : CinemaniaHDD.com
    Encoded date                             : UTC 2018-01-13 04:11:14 / UTC 2018-01-12T22:20:54Z
    Writing application                      : mkvmerge v15.0.0 ('Duel with the Devil') 64-bit
    Writing library                          : libebml v1.3.5 + libmatroska v1.4.5 / Lavf57.7.2

    Video
    ID                                       : 1
    Format                                   : AVC
    Format/Info                              : Advanced Video Codec
    Format profile                           : High@L4.1
    Format settings                          : CABAC / 4 Ref Frames
    Format settings, CABAC                   : Yes
    Format settings, RefFrames               : 4 frames
    Codec ID                                 : V_MPEG4/ISO/AVC
    Duration                                 : 1 h 47 min
    Bit rate                                 : 3 318 kb/s
    Nominal bit rate                         : 3 500 kb/s
    Width                                    : 1 920 pixels
    Height                                   : 1 036 pixels
    Display aspect ratio                     : 1.85:1
    Frame rate mode                          : Constant
    Frame rate                               : 23.976 (24000/1001) FPS
    Color space                              : YUV
    Chroma subsampling                       : 4:2:0
    Bit depth                                : 8 bits
    Scan type                                : Progressive
    Bits/(Pixel*Frame)                       : 0.070
    Stream size                              : 2.48 GiB (78%)
    Title                                    : Hasta pronto Christopher Robin (2017) 1080p Latino
    Writing library                          : x264 core 148 r2708 86b7198
    Encoding settings                        : cabac=1 / ref=4 / deblock=1:0:0 / analyse=0x3:0x113 / me=umh / subme=8 / psy=1 / psy_rd=1.00:0.00 / mixed_ref=1 / me_range=16 / chroma_me=1 / trellis=1 / 8x8dct=1 / cqm=0 / deadzone=21,11 / fast_pskip=1 / chroma_qp_offset=-2 / threads=32 / lookahead_threads=5 / sliced_threads=0 / nr=0 / decimate=1 / interlaced=0 / bluray_compat=0 / constrained_intra=0 / bframes=3 / b_pyramid=2 / b_adapt=2 / b_bias=0 / direct=3 / weightb=1 / open_gop=0 / weightp=2 / keyint=240 / keyint_min=24 / scenecut=40 / intra_refresh=0 / rc_lookahead=50 / rc=abr / mbtree=1 / bitrate=3500 / ratetol=1.0 / qcomp=0.60 / qpmin=0 / qpmax=69 / qpstep=4 / vbv_maxrate=62500 / vbv_bufsize=78125 / nal_hrd=none / filler=0 / ip_ratio=1.40 / aq=1:1.00
    Language                                 : English
    Default                                  : Yes
    Forced                                   : No
    Color range                              : Limited
    Color primaries                          : BT.709
    Transfer characteristics                 : BT.709
    Matrix coefficients                      : BT.709
    Statistics Tags Issue                    : mkvmerge v15.0.0 ('Duel with the Devil') 64-bit 2018-01-13 04:11:14 / mkvmerge v15.0.0 ('Duel with the Devil') 64-bit 2018-01-13 04:11:14 / UTC 2018-01-12T22:20:54Z
    FromStats_BitRate                        : 3400392
    FromStats_Duration                       : 01:47:00.665000000
    FromStats_FrameCount                     : 153942
    FromStats_StreamSize                     : 2729097843

    Audio #1
    ID                                       : 2
    Format                                   : AC-3
    Format/Info                              : Audio Coding 3
    Format settings, Endianness              : Big
    Codec ID                                 : A_AC3
    Duration                                 : 1 h 47 min
    Bit rate mode                            : Constant
    Bit rate                                 : 448 kb/s
    Channel(s)                               : 6 channels
    Channel positions                        : Front: L C R, Side: L R, LFE
    Sampling rate                            : 48.0 kHz
    Frame rate                               : 31.250 FPS (1536 SPF)
    Bit depth                                : 16 bits
    Compression mode                         : Lossy
    Delay relative to video                  : -5 ms
    Stream size                              : 343 MiB (11%)
    Language                                 : Spanish
    Service kind                             : Complete Main
    Default                                  : Yes
    Forced                                   : No
    Statistics Tags Issue                    : mkvmerge v15.0.0 ('Duel with the Devil') 64-bit 2018-01-13 04:11:14 / mkvmerge v15.0.0 ('Duel with the Devil') 64-bit 2018-01-13 04:11:14 / UTC 2018-01-12T22:20:54Z
    FromStats_BitRate                        : 448000
    FromStats_Duration                       : 01:47:00.672000000
    FromStats_FrameCount                     : 200646
    FromStats_StreamSize                     : 359557632

    Audio #2
    ID                                       : 3
    Format                                   : AC-3
    Format/Info                              : Audio Coding 3
    Format settings, Endianness              : Big
    Codec ID                                 : A_AC3
    Duration                                 : 1 h 47 min
    Bit rate mode                            : Constant
    Bit rate                                 : 384 kb/s
    Channel(s)                               : 6 channels
    Channel positions                        : Front: L C R, Side: L R, LFE
    Sampling rate                            : 48.0 kHz
    Frame rate                               : 31.250 FPS (1536 SPF)
    Bit depth                                : 16 bits
    Compression mode                         : Lossy
    Delay relative to video                  : -5 ms
    Stream size                              : 294 MiB (9%)
    Language                                 : English
    Service kind                             : Complete Main
    Default                                  : No
    Forced                                   : No
    Statistics Tags Issue                    : mkvmerge v15.0.0 ('Duel with the Devil') 64-bit 2018-01-13 04:11:14 / mkvmerge v15.0.0 ('Duel with the Devil') 64-bit 2018-01-13 04:11:14 / UTC 2018-01-12T22:20:54Z
    FromStats_BitRate                        : 384000
    FromStats_Duration                       : 01:47:00.640000000
    FromStats_FrameCount                     : 200645
    FromStats_StreamSize                     : 308190720

    Text #1
    ID                                       : 4
    Format                                   : UTF-8
    Codec ID                                 : S_TEXT/UTF8
    Codec ID/Info                            : UTF-8 Plain Text
    Title                                    : Forzados
    Language                                 : Spanish
    Default                                  : Yes
    Forced                                   : Yes
    Statistics Tags Issue                    : mkvmerge v15.0.0 ('Duel with the Devil') 64-bit 2018-01-13 04:11:14 / mkvmerge v15.0.0 ('Duel with the Devil') 64-bit 2018-01-13 04:11:14 / UTC 2018-01-12T22:20:54Z
    FromStats_BitRate                        : 1
    FromStats_Duration                       : 01:39:47.498000000
    FromStats_FrameCount                     : 17
    FromStats_StreamSize                     : 892

    Text #2
    ID                                       : 5
    Format                                   : UTF-8
    Codec ID                                 : S_TEXT/UTF8
    Codec ID/Info                            : UTF-8 Plain Text
    Language                                 : Spanish
    Default                                  : No
    Forced                                   : No
    Statistics Tags Issue                    : mkvmerge v15.0.0 ('Duel with the Devil') 64-bit 2018-01-13 04:11:14 / mkvmerge v15.0.0 ('Duel with the Devil') 64-bit 2018-01-13 04:11:14 / UTC 2018-01-12T22:20:54Z
    FromStats_BitRate                        : 62
    FromStats_Duration                       : 01:39:47.499000000
    FromStats_FrameCount                     : 1405
    FromStats_StreamSize                     : 46939

    Menu
    00:00:00.000                             : :00:00:00.000
    00:04:03.952                             : :00:04:03.952
    00:07:01.171                             : :00:07:01.171
    00:10:32.632                             : :00:10:32.632
    00:13:40.528                             : :00:13:40.528
    00:16:48.591                             : :00:16:48.591
    00:20:43.409                             : :00:20:43.409
    00:25:44.793                             : :00:25:44.793
    00:30:36.752                             : :00:30:36.752
    00:35:25.582                             : :00:35:25.582
    00:40:50.740                             : :00:40:50.740
    00:48:22.108                             : :00:48:22.108
    00:52:32.733                             : :00:52:32.733
    00:57:53.595                             : :00:57:53.595
    01:03:35.812                             : :01:03:35.812
    01:07:38.513                             : :01:07:38.513
    01:12:43.860                             : :01:12:43.859
    01:18:55.731                             : :01:18:55.731
    01:21:45.609                             : :01:21:45.609
    01:25:16.653                             : :01:25:16.653
    01:29:10.428                             : :01:29:10.428
    01:32:27.917                             : :01:32:27.917
    01:35:55.917                             : :01:35:55.917
    01:41:03.266                             : :01:41:03.266

     

  • Peso: 3.17 GiB

Sinopsis

Una mirada a la relación del alabado escritor para niños A. A. Milne (Domhnall Gleeson) y su hijo Christopher Robin (Will Tilston), cuyos juguetes inspiraron el mundo mágico de Winnie the Pooh. Junto a su madre Daphne (Margot Robbie) y su cuidadora Olive, Christopher Robin y su familia se verán arrollados por el éxito internacional de los libros.

Ficha técnica

  • Titulo original: Goodbye Christopher Robin
  • Fecha de lanzamiento: 29-09-2017 (United States of America)
  • Director: Simon Curtis
  • Género: Familia, Historia
  • Puntuación: 0.0 0 votos
  • Duración:
    1 h 47 min

Video trailer de la película

Enlaces de descarga

Rip de Bluray

Descargar Hasta pronto Christopher Robin (2017) 1080p Latino




Aportes de DPeliculasHDmega la pass es:dpeliculashdmega.org Aportes de CinemaniaHD la pass es:cinemaniahdd.com
Guardado en : Familia , Historia

Películas relacionadas

  • Experimenter (2015) Full 1080p Subtitulado

    2015
    Experimenter (2015) Full 1080p Subtitulado

    5.0 1h 30m 2015

    En 1961, Stanley Milgram llevó a cabo una serie de experimentos sobre la obediencia en la Universidad...

    Director: Sasha Vitelli

    Género: Drama

    Actores: Xavier Fan

  • 22 De Julio (2018) Web-DL Latino

    2018
    22 De Julio (2018) Web-DL Latino

    0.0 2h 23m 2018

    22 De Julio (2018) Web-DL Netflix Latino. Mega, Google Drive. Narra el atentado terrorista más letal...

    Director: Paul Greengrass

    Género: Drama

    Actores: Trygve Svindland

  • Ant-Man y la Avispa (2018) Full 1080p [Placebo]

    2018
    Ant-Man y la Avispa (2018) Full 1080p [Placebo]

    4.2 2h 18m 2018

    Ant-Man y la Avispa  Descargar Gratis Mientras Scott Lang se convierte en un súper héroe y en un padre,...

    Director: Robin Meyers

    Género: Acción

    Actores: Zachary Culbertson

  • Ant-Man y la Avispa (2018) 1080p Latino

    2018
    Ant-Man y la Avispa (2018) 1080p Latino

    4.0 1h 59m 2018

    Ant-man Y La Avispa (2018) 1080p Latino. Mega, Google Drive. Tras lo sucedido en Capitán América:...

    Director: Robin Meyers

    Género: Acción

    Actores: Zachary Culbertson

  • Operation Finale (2018) WEBDL 1080p Latino

    2018
    Operation Finale (2018) WEBDL 1080p Latino

    3.0 2h 2m 2018

    Operation Finale mega latino 15 años después de la Segunda Guerra Mundial, un equipo de agentes secretos...

    Director: Ricardo Méndez Matta

    Género: Drama

    Actores: Torben Liebrecht

Comentarios 2
  • Cr. Jose - 13 enero, 2018

    Subirán portada gris ?

    • Dpelis2 - 13 enero, 2018

      Ya fue publicada! Saludos.