Harry Potter y el prisionero de Azkaban (2004) Full 1080p Latino

1.317 vistas
1 estrella2 estrellas3 estrellas4 estrellas5 estrellas (Ninguna valoración todavía)
Cargando…

Información de Harry Potter y el prisionero de Azkaban (2004) Full 1080p Latino

Datos de la película

  • Calidad: Full 1080p
  • Audio: Español Latino AC3 5.1 BLURAY - Ingles AC3 5.1 BLURAY
  • Subtitulos: Español Latino PGS
  • Resolución: 1920X1080
  • Formato: MKV
  • Codec: H.264
  • Encoder: Dpelis
  • Mediainfo: Clic para Mostrar Datos Ver
  • Format                                   : Matroska
    Format version                           : Version 4 / Version 2
    File size                                : 6.46 GiB
    Duration                                 : 2 h 21 min
    Overall bit rate                         : 6 529 kb/s
    Movie name                               : dpeliculashdmega.org
    Encoded date                             : UTC 2017-10-31 04:00:08 / UTC 2017-10-27T13:15:53Z
    Writing application                      : mkvmerge v10.0.0 ('To Drown In You') 64bit
    Writing library                          : libebml v1.3.4 + libmatroska v1.4.5 / Lavf57.7.2

    Video
    ID                                       : 1
    Format                                   : AVC
    Format/Info                              : Advanced Video Codec
    Format profile                           : High@L4.1
    Format settings                          : CABAC / 4 Ref Frames
    Format settings, CABAC                   : Yes
    Format settings, RefFrames               : 4 frames
    Codec ID                                 : V_MPEG4/ISO/AVC
    Duration                                 : 2 h 21 min
    Bit rate                                 : 5 119 kb/s
    Width                                    : 1 920 pixels
    Height                                   : 1 080 pixels
    Display aspect ratio                     : 16:9
    Frame rate mode                          : Constant
    Frame rate                               : 23.976 (24000/1001) FPS
    Color space                              : YUV
    Chroma subsampling                       : 4:2:0
    Bit depth                                : 8 bits
    Scan type                                : Progressive
    Bits/(Pixel*Frame)                       : 0.103
    Stream size                              : 5.07 GiB (78%)
    Title                                    : Harry Potter y el prisionero de Azkaban (2004) Full 1080p Latino
    Writing library                          : x264 core 148 r2708 86b7198
    Encoding settings                        : cabac=1 / ref=4 / deblock=1:0:0 / analyse=0x3:0x133 / me=esa / subme=10 / psy=1 / psy_rd=1.00:0.00 / mixed_ref=1 / me_range=24 / chroma_me=1 / trellis=2 / 8x8dct=1 / cqm=0 / deadzone=21,11 / fast_pskip=1 / chroma_qp_offset=-2 / threads=34 / lookahead_threads=5 / sliced_threads=0 / nr=0 / decimate=1 / interlaced=0 / bluray_compat=0 / constrained_intra=0 / bframes=8 / b_pyramid=2 / b_adapt=2 / b_bias=0 / direct=3 / weightb=1 / open_gop=0 / weightp=2 / keyint=240 / keyint_min=24 / scenecut=40 / intra_refresh=0 / rc_lookahead=60 / rc=crf / mbtree=1 / crf=20.0 / qcomp=0.60 / qpmin=0 / qpmax=69 / qpstep=4 / vbv_maxrate=62500 / vbv_bufsize=78125 / crf_max=0.0 / nal_hrd=none / filler=0 / ip_ratio=1.40 / aq=1:1.00
    Language                                 : English
    Default                                  : Yes
    Forced                                   : No
    Color range                              : Limited
    Color primaries                          : BT.709
    Transfer characteristics                 : BT.709
    Matrix coefficients                      : BT.709
    Statistics Tags Issue                    : mkvmerge v10.0.0 ('To Drown In You') 64bit 2017-10-31 04:00:08 / mkvmerge v10.0.0 ('To Drown In You') 64bit 2017-10-31 04:00:08 / UTC 2017-10-27T13:15:53Z
    FromStats_BitRate                        : 5234659
    FromStats_Duration                       : 02:21:42.161000000
    FromStats_FrameCount                     : 203848
    FromStats_StreamSize                     : 5563239348

    Audio #1
    ID                                       : 2
    Format                                   : AC-3
    Format/Info                              : Audio Coding 3
    Format settings, Endianness              : Big
    Codec ID                                 : A_AC3
    Duration                                 : 2 h 21 min
    Bit rate mode                            : Constant
    Bit rate                                 : 640 kb/s
    Channel(s)                               : 6 channels
    Channel positions                        : Front: L C R, Side: L R, LFE
    Sampling rate                            : 48.0 kHz
    Frame rate                               : 31.250 FPS (1536 SPF)
    Bit depth                                : 16 bits
    Compression mode                         : Lossy
    Delay relative to video                  : -5 ms
    Stream size                              : 649 MiB (10%)
    Title                                    : Latino-AC3
    Language                                 : Spanish
    Service kind                             : Complete Main
    Default                                  : Yes
    Forced                                   : No
    Statistics Tags Issue                    : mkvmerge v10.0.0 ('To Drown In You') 64bit 2017-10-31 04:00:08 / mkvmerge v10.0.0 ('To Drown In You') 64bit 2017-10-31 04:00:08 / UTC 2017-10-27T13:15:53Z
    FromStats_BitRate                        : 640000
    FromStats_Duration                       : 02:21:42.176000000
    FromStats_FrameCount                     : 265693
    FromStats_StreamSize                     : 680174080

    Audio #2
    ID                                       : 3
    Format                                   : AC-3
    Format/Info                              : Audio Coding 3
    Format settings, Endianness              : Big
    Codec ID                                 : A_AC3
    Duration                                 : 2 h 21 min
    Bit rate mode                            : Constant
    Bit rate                                 : 640 kb/s
    Channel(s)                               : 6 channels
    Channel positions                        : Front: L C R, Side: L R, LFE
    Sampling rate                            : 48.0 kHz
    Frame rate                               : 31.250 FPS (1536 SPF)
    Bit depth                                : 16 bits
    Compression mode                         : Lossy
    Delay relative to video                  : -5 ms
    Stream size                              : 649 MiB (10%)
    Title                                    : Ingles-AC3
    Language                                 : English
    Service kind                             : Complete Main
    Default                                  : No
    Forced                                   : No
    Statistics Tags Issue                    : mkvmerge v10.0.0 ('To Drown In You') 64bit 2017-10-31 04:00:08 / mkvmerge v10.0.0 ('To Drown In You') 64bit 2017-10-31 04:00:08 / UTC 2017-10-27T13:15:53Z
    FromStats_BitRate                        : 640000
    FromStats_Duration                       : 02:21:42.144000000
    FromStats_FrameCount                     : 265692
    FromStats_StreamSize                     : 680171520

    Text #1
    ID                                       : 4
    Format                                   : UTF-8
    Codec ID                                 : S_TEXT/UTF8
    Codec ID/Info                            : UTF-8 Plain Text
    Title                                    : SRT-Forzados
    Language                                 : Spanish
    Default                                  : Yes
    Forced                                   : No
    Statistics Tags Issue                    : mkvmerge v10.0.0 ('To Drown In You') 64bit 2017-10-31 04:00:08 / mkvmerge v10.0.0 ('To Drown In You') 64bit 2017-10-31 04:00:08 / UTC 2017-10-27T13:15:53Z
    FromStats_BitRate                        : 0
    FromStats_Duration                       : 00:38:45.947000000
    FromStats_FrameCount                     : 6
    FromStats_StreamSize                     : 162

    Text #2
    ID                                       : 5
    Format                                   : UTF-8
    Codec ID                                 : S_TEXT/UTF8
    Codec ID/Info                            : UTF-8 Plain Text
    Title                                    : SRT-Completos
    Language                                 : Spanish
    Default                                  : No
    Forced                                   : No
    Statistics Tags Issue                    : mkvmerge v10.0.0 ('To Drown In You') 64bit 2017-10-31 04:00:08 / mkvmerge v10.0.0 ('To Drown In You') 64bit 2017-10-31 04:00:08 / UTC 2017-10-27T13:15:53Z
    FromStats_BitRate                        : 48
    FromStats_Duration                       : 02:20:17.199000000
    FromStats_FrameCount                     : 1392
    FromStats_StreamSize                     : 51203

    Text #3
    ID                                       : 6
    Format                                   : PGS
    Muxing mode                              : zlib
    Codec ID                                 : S_HDMV/PGS
    Codec ID/Info                            : Picture based subtitle format used on BDs/HD-DVDs
    Title                                    : PGS
    Language                                 : Spanish
    Default                                  : No
    Forced                                   : No
    Statistics Tags Issue                    : mkvmerge v10.0.0 ('To Drown In You') 64bit 2017-10-31 04:00:08 / mkvmerge v10.0.0 ('To Drown In You') 64bit 2017-10-31 04:00:08 / UTC 2017-10-27T13:15:53Z
    FromStats_BitRate                        : 11837
    FromStats_Duration                       : 02:20:44.770000000
    FromStats_FrameCount                     : 2804
    FromStats_StreamSize                     : 12495097

    Menu
    00:00:00.000                             : :Under Covers Prologue
    00:01:40.142                             : :Aunt Marge's Big Mistake
    00:06:36.271                             : :The Knight Bus
    00:12:45.890                             : :The Leaky Cauldron
    00:14:52.475                             : :The Monster Book of Monsters
    00:16:12.472                             : :In Grave Danger
    00:18:56.260                             : :The Dementor
    00:23:50.346                             : :Welcome and Warning
    00:28:50.771                             : :Tea Leaves
    00:31:21.880                             : :Backbeak
    00:38:50.203                             : :Boggart in the Wardrobe
    00:44:45.349                             : :Talent for Trouble
    00:47:37.772                             : :Flight of the Fat Lady
    00:49:39.977                             : :Substitute Teacher
    00:53:42.803                             : :Grim Defeat
    00:57:28.445                             : :The Marauder's Map
    01:01:23.763                             : :Who's There?
    01:03:22.966                             : :I Hope He Finds Me
    01:07:10.944                             : :The Patronus
    01:11:53.434                             : :Seeing the Impossible
    01:19:10.120                             : :Professor Trelarney's Prediction
    01:22:29.903                             : :Witness to an Execution
    01:27:30.912                             : :The Whomping Willow
    01:30:13.325                             : :Sirius Black
    01:34:19.070                             : :Peter Pettigrew
    01:36:56.853                             : :Friends Become Foes
    01:42:24.513                             : :The Dementor's Kiss
    01:45:40.376                             : :Hermione's Secret
    01:50:03.639                             : :Onlookers to the Rescue
    01:55:33.385                             : :Saving Lives
    02:00:07.492                             : :Truly Seen, Truly Free
    02:03:16.014                             : :Two Places at Once
    02:06:02.472                             : :Mischief Managed
    02:08:43.007                             : :The Firebolt
    02:09:47.363                             : :End Credits Map

  • Peso: 6.46 GiB

Sinopsis

Harry está deseando que termine el verano para comenzar un nuevo curso en Hogwarts, y abandonar lo antes posible la casa de sus despreciables tíos, los Dursley. Lo que desconoce Harry es que va a tener que abandonar Privet Drive antes de tiempo e inesperadamente después de convertir a su tía Marge en un globo gigante. Un autobús noctámbulo, y encantado por supuesto, le llevará a la taberna El Caldero Chorreante, donde le espera nada menos que Cornelius Fudge, el Ministro de Magia.

Ficha técnica

Video trailer de la película

Enlaces de descarga

Rip de Bluray

Descargar Harry Potter y el prisionero de Azkaban (2004) Full 1080p Latino




Aportes de DPeliculasHDmega la pass es:dpeliculashdmega.org Aportes de CinemaniaHD la pass es:cinemaniahdd.com
Guardado en : Aventura , Familia , Fantasía

Películas relacionadas

Comentarios 2
  • mega peliculas - 05 noviembre, 2017

    Ufff quede maravillada con tu blog, un besote!! <3

  • Jhefferson - 01 noviembre, 2017

    Muchas gracias excelente aporte y creo que se equivocaron de capturas estas son del caliz de fuego 😀