Guardianes (2017) 1080p Latino

3.720 vistas
1 estrella2 estrellas3 estrellas4 estrellas5 estrellas (2 votos, promedio: 2,50 de 5)
Cargando…

Información de Guardianes (2017) 1080p Latino

Datos de la película

  • Calidad: 1080p
  • Audio: Se especifica abajo de la Sinopsis
  • Subtitulos: Español Latino SRT
  • Resolución: 1920X804
  • Formato: MKV
  • Codec: H.264
  • Encoder: Dpelis
  • Mediainfo: Clic para Mostrar Datos Ver
  • Format                                   : Matroska
    Format version                           : Version 4 / Version 2
    File size                                : 2.45 GiB
    Duration                                 : 1 h 29 min
    Overall bit rate                         : 3 942 kb/s
    Movie name                               : dpeliculashdmega.org
    Encoded date                             : UTC 2017-11-25 20:49:58 / UTC 2017-11-25T19:51:20Z
    Writing application                      : mkvmerge v15.0.0 ('Duel with the Devil') 64-bit
    Writing library                          : libebml v1.3.5 + libmatroska v1.4.5 / Lavf57.7.2

    Video
    ID                                       : 1
    Format                                   : AVC
    Format/Info                              : Advanced Video Codec
    Format profile                           : High@L4.1
    Format settings                          : CABAC / 5 Ref Frames
    Format settings, CABAC                   : Yes
    Format settings, RefFrames               : 5 frames
    Codec ID                                 : V_MPEG4/ISO/AVC
    Duration                                 : 1 h 29 min
    Bit rate                                 : 3 287 kb/s
    Nominal bit rate                         : 3 500 kb/s
    Width                                    : 1 920 pixels
    Height                                   : 804 pixels
    Display aspect ratio                     : 2.40:1
    Frame rate mode                          : Constant
    Frame rate                               : 24.000 FPS
    Color space                              : YUV
    Chroma subsampling                       : 4:2:0
    Bit depth                                : 8 bits
    Scan type                                : Progressive
    Bits/(Pixel*Frame)                       : 0.089
    Stream size                              : 2.05 GiB (83%)
    Writing library                          : x264 core 148 r2708 86b7198
    Encoding settings                        : cabac=1 / ref=5 / deblock=1:0:0 / analyse=0x3:0x113 / me=umh / subme=8 / psy=1 / psy_rd=1.00:0.00 / mixed_ref=1 / me_range=16 / chroma_me=1 / trellis=1 / 8x8dct=1 / cqm=0 / deadzone=21,11 / fast_pskip=1 / chroma_qp_offset=-2 / threads=25 / lookahead_threads=4 / sliced_threads=0 / nr=0 / decimate=1 / interlaced=0 / bluray_compat=0 / constrained_intra=0 / bframes=3 / b_pyramid=2 / b_adapt=2 / b_bias=0 / direct=3 / weightb=1 / open_gop=0 / weightp=2 / keyint=240 / keyint_min=24 / scenecut=40 / intra_refresh=0 / rc_lookahead=50 / rc=abr / mbtree=1 / bitrate=3500 / ratetol=1.0 / qcomp=0.60 / qpmin=0 / qpmax=69 / qpstep=4 / vbv_maxrate=62500 / vbv_bufsize=78125 / nal_hrd=none / filler=0 / ip_ratio=1.40 / aq=1:1.00
    Default                                  : Yes
    Forced                                   : No
    Color range                              : Limited
    Color primaries                          : BT.709
    Transfer characteristics                 : BT.709
    Matrix coefficients                      : BT.709
    Statistics Tags Issue                    : mkvmerge v15.0.0 ('Duel with the Devil') 64-bit 2017-11-25 20:49:58 / mkvmerge v15.0.0 ('Duel with the Devil') 64-bit 2017-11-25 20:49:58 / UTC 2017-11-25T19:51:20Z
    FromStats_BitRate                        : 3371428
    FromStats_Duration                       : 01:28:57.042000000
    FromStats_FrameCount                     : 128089
    FromStats_StreamSize                     : 2249181908

    Audio #1
    ID                                       : 2
    Format                                   : AC-3
    Format/Info                              : Audio Coding 3
    Format settings, Endianness              : Big
    Codec ID                                 : A_AC3
    Duration                                 : 1 h 29 min
    Bit rate mode                            : Constant
    Bit rate                                 : 192 kb/s
    Channel(s)                               : 2 channels
    Channel positions                        : Front: L R
    Sampling rate                            : 48.0 kHz
    Frame rate                               : 31.250 FPS (1536 SPF)
    Bit depth                                : 16 bits
    Compression mode                         : Lossy
    Delay relative to video                  : 5 s 995 ms
    Stream size                              : 122 MiB (5%)
    Title                                    : Latino-AC3
    Language                                 : Spanish
    Service kind                             : Complete Main
    Default                                  : Yes
    Forced                                   : No
    Statistics Tags Issue                    : mkvmerge v15.0.0 ('Duel with the Devil') 64-bit 2017-11-25 20:49:58 / mkvmerge v15.0.0 ('Duel with the Devil') 64-bit 2017-11-25 20:49:58 / UTC 2017-11-25T19:51:20Z
    FromStats_BitRate                        : 192000
    FromStats_Duration                       : 01:29:01.888000000
    FromStats_FrameCount                     : 166934
    FromStats_StreamSize                     : 128205312

    Audio #2
    ID                                       : 3
    Format                                   : AC-3
    Format/Info                              : Audio Coding 3
    Format settings, Endianness              : Big
    Codec ID                                 : A_AC3
    Duration                                 : 1 h 29 min
    Bit rate mode                            : Constant
    Bit rate                                 : 384 kb/s
    Channel(s)                               : 6 channels
    Channel positions                        : Front: L C R, Side: L R, LFE
    Sampling rate                            : 48.0 kHz
    Frame rate                               : 31.250 FPS (1536 SPF)
    Bit depth                                : 16 bits
    Compression mode                         : Lossy
    Delay relative to video                  : -5 ms
    Stream size                              : 245 MiB (10%)
    Title                                    : Ruso-AC3
    Language                                 : Russian
    Service kind                             : Complete Main
    Default                                  : No
    Forced                                   : No
    Statistics Tags Issue                    : mkvmerge v15.0.0 ('Duel with the Devil') 64-bit 2017-11-25 20:49:58 / mkvmerge v15.0.0 ('Duel with the Devil') 64-bit 2017-11-25 20:49:58 / UTC 2017-11-25T19:51:20Z
    FromStats_BitRate                        : 384000
    FromStats_Duration                       : 01:28:57.088000000
    FromStats_FrameCount                     : 166784
    FromStats_StreamSize                     : 256180224

    Text #1
    ID                                       : 4
    Format                                   : UTF-8
    Codec ID                                 : S_TEXT/UTF8
    Codec ID/Info                            : UTF-8 Plain Text
    Language                                 : Spanish
    Default                                  : Yes
    Forced                                   : No
    Statistics Tags Issue                    : mkvmerge v15.0.0 ('Duel with the Devil') 64-bit 2017-11-25 20:49:58 / mkvmerge v15.0.0 ('Duel with the Devil') 64-bit 2017-11-25 20:49:58 / UTC 2017-11-25T19:51:20Z
    FromStats_BitRate                        : 35
    FromStats_Duration                       : 01:20:03.125000000
    FromStats_FrameCount                     : 564
    FromStats_StreamSize                     : 21471

    Text #2
    ID                                       : 5
    Format                                   : ASS
    Codec ID                                 : S_TEXT/ASS
    Codec ID/Info                            : Advanced Sub Station Alpha
    Compression mode                         : Lossless
    Language                                 : English
    Default                                  : No
    Forced                                   : No
    Statistics Tags Issue                    : mkvmerge v15.0.0 ('Duel with the Devil') 64-bit 2017-11-25 20:49:58 / mkvmerge v15.0.0 ('Duel with the Devil') 64-bit 2017-11-25 20:49:58 / UTC 2017-11-25T19:51:20Z
    FromStats_BitRate                        : 54
    FromStats_Duration                       : 01:20:02.505000000
    FromStats_FrameCount                     : 568
    FromStats_StreamSize                     : 32471

    Menu
    00:00:00.000                             : :Chapter 1
    00:00:52.417                             : :Chapter 2
    00:10:50.583                             : :Chapter 3
    00:21:24.500                             : :Chapter 4
    00:33:35.792                             : :Chapter 5
    00:44:08.333                             : :Chapter 6
    00:55:49.083                             : :Chapter 7
    01:06:44.417                             : :Chapter 8
    01:17:46.875                             : :Chapter 9

     

  • Peso: 2.45 GiB

Sinopsis

Guardianes cuenta la historia de un equipo de héroes reunidos durante la Guerra Fría para combatir a un super-villano cuya marcha sobre Moscú es inevitable – principalmente porque ha logrado deshabilitar toda maquinaria, disminuyendo así al servicio militar. El equipo de héroes se llama los Guardianes y cada uno representa un poder distinto.

 

Nota: Audio Latino AC3 2.0 Capturado – Audio Ruso AC3 5.1 BluRay

Ficha técnica

Video trailer de la película

Enlaces de descarga

Rip de Bluray

Descargar Guardianes (2017) 1080p Latino




Aportes de DPeliculasHDmega la pass es:dpeliculashdmega.org Aportes de CinemaniaHD la pass es:cinemaniahdd.com

Películas relacionadas

Comentarios 14
  • M.Torres - 16 enero, 2018

    si pudieras consegiarla en ingles

    • Dracarys - 29 enero, 2018

      el idioma original es Ruso.

  • #Cinefilo - 27 noviembre, 2017

    Hola. muchas gracias por el aporte, una duda la subiran en Full ??

    • Dpelis2 - 27 noviembre, 2017

      Cuando salga un mejor audio que el Capturado si.

  • Jorge - 26 noviembre, 2017

    Links de mega?

    • Dpelis2 - 26 noviembre, 2017

      Agregados

  • carlos - 26 noviembre, 2017

    No puedo ver los links, nunca pasan los 30 segundos aunque este en los anuncios.

    • Dpelis2 - 26 noviembre, 2017

      Intenta usar la extencion Hola y cambie la ip

      • carlos - 26 noviembre, 2017

        cual extension, y como es eso de la ip?, gracias

        • Dpelis2 - 26 noviembre, 2017

          Pon el google (Extension Hola VPN ) y cambia la ip si no sabes busca un tutorial en Youtube

          • carlos - 26 noviembre, 2017

            Funciono perfecto, muchas gracias!!

  • Mauro - 25 noviembre, 2017

    Audio Totalmente descuadrado, que mal perdi mi tiempo

    • dpelis - 26 noviembre, 2017

      tiempo desafe para revisar en ese momento, gracias

  • Ale - 25 noviembre, 2017

    Muchísimas gracias bro! La esperaba hace rato en latino a esta peli. Sos un capo. Saludos