Gringo se busca vivo o muerto (2018) 1080p Latino | CinemaniaHD - Descargar Peliculas 1080p Mega Google Drive

Gringo se busca vivo o muerto (2018) 1080p Latino

1.411 vistas
1 estrella2 estrellas3 estrellas4 estrellas5 estrellas (1 votos, promedio: 5,00 de 5)
Cargando…

Información de Gringo se busca vivo o muerto (2018) 1080p Latino

Datos de la película

  • Calidad: 1080p
  • Audio: Español Latino AC3 2.0 iTUNES - Ingles AC3 5.1 BLURAY
  • Subtitulos: Español Latino SRT
  • Resolución: 1920x808p
  • Formato: MKV
  • Codec: H.264
  • Encoder: Dracarys
  • Mediainfo: Clic para Mostrar Datos Ver
  • Format                                   : Matroska
    Format version                           : Version 4 / Version 2
    File size                                : 3.20 GiB
    Duration                                 : 1 h 50 min
    Overall bit rate                         : 4 139 kb/s
    Movie name                               : CinemaniaHDD.net
    Encoded date                             : UTC 2018-07-26 23:16:54 / UTC 2018-07-26T20:47:58Z
    Writing application                      : mkvmerge v15.0.0 ('Duel with the Devil') 64-bit
    Writing library                          : libebml v1.3.5 + libmatroska v1.4.5 / Lavf57.7.2

    Video
    ID                                       : 1
    Format                                   : AVC
    Format/Info                              : Advanced Video Codec
    Format profile                           : High@L4.1
    Format settings                          : CABAC / 5 Ref Frames
    Format settings, CABAC                   : Yes
    Format settings, RefFrames               : 5 frames
    Codec ID                                 : V_MPEG4/ISO/AVC
    Duration                                 : 1 h 50 min
    Bit rate                                 : 3 500 kb/s
    Width                                    : 1 920 pixels
    Height                                   : 808 pixels
    Display aspect ratio                     : 2.40:1
    Frame rate mode                          : Constant
    Frame rate                               : 23.976 (24000/1001) FPS
    Color space                              : YUV
    Chroma subsampling                       : 4:2:0
    Bit depth                                : 8 bits
    Scan type                                : Progressive
    Bits/(Pixel*Frame)                       : 0.094
    Stream size                              : 2.64 GiB (83%)
    Title                                    : Gringo se busca vivo o muerto (2018) 1080p Latino
    Writing library                          : x264 core 155 r2893 b00bcaf
    Encoding settings                        : cabac=1 / ref=5 / deblock=1:0:0 / analyse=0x3:0x113 / me=hex / subme=8 / psy=1 / psy_rd=1.00:0.00 / mixed_ref=1 / me_range=16 / chroma_me=1 / trellis=2 / 8x8dct=1 / cqm=0 / deadzone=21,11 / fast_pskip=1 / chroma_qp_offset=-2 / threads=25 / lookahead_threads=4 / sliced_threads=0 / nr=0 / decimate=1 / interlaced=0 / bluray_compat=0 / constrained_intra=0 / bframes=3 / b_pyramid=2 / b_adapt=1 / b_bias=0 / direct=3 / weightb=1 / open_gop=0 / weightp=2 / keyint=240 / keyint_min=24 / scenecut=40 / intra_refresh=0 / rc_lookahead=50 / rc=abr / mbtree=1 / bitrate=3500 / ratetol=1.0 / qcomp=0.60 / qpmin=0 / qpmax=69 / qpstep=4 / vbv_maxrate=62500 / vbv_bufsize=78125 / nal_hrd=none / filler=0 / ip_ratio=1.40 / aq=1:1.00
    Language                                 : English
    Default                                  : Yes
    Forced                                   : No
    Color range                              : Limited
    Color primaries                          : BT.709
    Transfer characteristics                 : BT.709
    Matrix coefficients                      : BT.709
    Statistics Tags Issue                    : mkvmerge v15.0.0 ('Duel with the Devil') 64-bit 2018-07-26 23:16:54 / mkvmerge v15.0.0 ('Duel with the Devil') 64-bit 2018-07-26 23:16:54 / UTC 2018-07-26T20:47:58Z
    FromStats_BitRate                        : 3496693
    FromStats_Duration                       : 01:50:38.382000000
    FromStats_FrameCount                     : 159162
    FromStats_StreamSize                     : 2901548392

    Audio #1
    ID                                       : 2
    Format                                   : AC-3
    Format/Info                              : Audio Coding 3
    Format settings, Endianness              : Big
    Codec ID                                 : A_AC3
    Duration                                 : 1 h 50 min
    Bit rate mode                            : Constant
    Bit rate                                 : 192 kb/s
    Channel(s)                               : 2 channels
    Channel positions                        : Front: L R
    Sampling rate                            : 48.0 kHz
    Frame rate                               : 31.250 FPS (1536 SPF)
    Bit depth                                : 16 bits
    Compression mode                         : Lossy
    Stream size                              : 152 MiB (5%)
    Language                                 : Spanish
    Service kind                             : Complete Main
    Default                                  : Yes
    Forced                                   : No
    Statistics Tags Issue                    : mkvmerge v15.0.0 ('Duel with the Devil') 64-bit 2018-07-26 23:16:54 / mkvmerge v15.0.0 ('Duel with the Devil') 64-bit 2018-07-26 23:16:54 / UTC 2018-07-26T20:47:58Z
    FromStats_BitRate                        : 192000
    FromStats_Duration                       : 01:50:38.368000000
    FromStats_FrameCount                     : 207449
    FromStats_StreamSize                     : 159320832

    Audio #2
    ID                                       : 3
    Format                                   : AC-3
    Format/Info                              : Audio Coding 3
    Format settings, Endianness              : Big
    Codec ID                                 : A_AC3
    Duration                                 : 1 h 50 min
    Bit rate mode                            : Constant
    Bit rate                                 : 448 kb/s
    Channel(s)                               : 6 channels
    Channel positions                        : Front: L C R, Side: L R, LFE
    Sampling rate                            : 48.0 kHz
    Frame rate                               : 31.250 FPS (1536 SPF)
    Bit depth                                : 16 bits
    Compression mode                         : Lossy
    Stream size                              : 355 MiB (11%)
    Language                                 : English
    Service kind                             : Complete Main
    Default                                  : No
    Forced                                   : No
    Statistics Tags Issue                    : mkvmerge v15.0.0 ('Duel with the Devil') 64-bit 2018-07-26 23:16:54 / mkvmerge v15.0.0 ('Duel with the Devil') 64-bit 2018-07-26 23:16:54 / UTC 2018-07-26T20:47:58Z
    FromStats_BitRate                        : 448000
    FromStats_Duration                       : 01:50:38.432000000
    FromStats_FrameCount                     : 207451
    FromStats_StreamSize                     : 371752192

    Text
    ID                                       : 4
    Format                                   : UTF-8
    Codec ID                                 : S_TEXT/UTF8
    Codec ID/Info                            : UTF-8 Plain Text
    Language                                 : Spanish
    Default                                  : No
    Forced                                   : No
    Statistics Tags Issue                    : mkvmerge v15.0.0 ('Duel with the Devil') 64-bit 2018-07-26 23:16:54 / mkvmerge v15.0.0 ('Duel with the Devil') 64-bit 2018-07-26 23:16:54 / UTC 2018-07-26T20:47:58Z
    FromStats_BitRate                        : 56
    FromStats_Duration                       : 01:41:06.493000000
    FromStats_FrameCount                     : 1265
    FromStats_StreamSize                     : 42982

    Menu
    00:00:00.000                             : :00:00:00.000
    00:02:29.149                             : :00:02:29.024
    00:08:36.808                             : :00:08:36.808
    00:14:49.389                             : :00:14:49.388
    00:19:43.057                             : :00:19:43.057
    00:26:11.195                             : :00:26:11.195
    00:29:59.548                             : :00:29:59.548
    00:34:12.676                             : :00:34:12.676
    00:41:59.600                             : :00:41:59.600
    00:49:14.702                             : :00:49:14.702
    00:57:12.304                             : :00:57:12.304
    01:02:56.940                             : :01:02:56.940
    01:09:40.551                             : :01:09:40.551
    01:16:20.951                             : :01:16:20.951
    01:20:38.125                             : :01:20:38.125
    01:25:53.857                             : :01:25:53.857
    01:29:14.224                             : :01:29:14.224
    01:33:46.704                             : :01:33:46.704
    01:39:06.524                             : :01:39:06.524
    01:43:28.869                             : :01:43:28.869

  • Peso: 3.20 GiB

Sinopsis

Un empresario norteamericano envuelto en un asunto de una empresa farmacéutica verá cómo su vida da un vuelco por un incidente en México.

Ficha técnica

Video trailer de la película

Enlaces de descarga

Rip de Bluray

Descargar Gringo se busca vivo o muerto (2018) 1080p Latino




Aportes de DPeliculasHDmega la pass es:dpeliculashdmega.org Aportes de CinemaniaHD la pass es:cinemaniahdd.com
Guardado en : Acción , Comedia , Crimen

Películas relacionadas

  • The Hitman’s Bodyguard (2017) Full 1080p Latino

    2017
    The Hitman’s Bodyguard (2017) Full 1080p Latino

    4.3 1 h 58 min 2017

    El prestigioso guardaespaldas Michael Bryce recibe un nuevo cliente: un asesino a sueldo, Darius Kincaid,...

    Director: Stefania Velichkova

    Género: Acción

    Actores: Yuri Kolokolnikov

  • Predators (2010) 4K HDR Latino

    2010
    Predators (2010) 4K HDR Latino

    4.0 1h 47m 2010

    Royce es un mercenario que, a regañadientes, encabeza a un grupo de guerreros de élite que acaban dándose...

    Director: Nimród Antal

    Género: 4K HDR

    Actores: Walton Goggins

Comentarios 0