Grease 2 (1982) Full 1080p Latino

705 vistas
1 estrella2 estrellas3 estrellas4 estrellas5 estrellas (3 votos, promedio: 4,33 de 5)
Cargando…

Información de Grease 2 (1982) Full 1080p Latino

Datos de la película

  • Calidad: Full 1080p
  • Audio: Español Latino AC3 2.0 BLURAY - Ingles AC3 5.1 BLURAY
  • Subtitulos: Español Latino PGS - Ingles PGS
  • Resolución: 1920x1080p
  • Formato: MKV
  • Codec: H.264
  • Encoder: Dracarys
  • Mediainfo: Clic para Mostrar Datos Ver
  • Format                                   : Matroska
    Format version                           : Version 4 / Version 2
    File size                                : 8.05 GiB
    Duration                                 : 1 h 54 min
    Overall bit rate                         : 10.1 Mb/s
    Movie name                               : CinemaniaHDD.com
    Encoded date                             : UTC 2018-05-16 02:42:06 / UTC 2018-05-15T06:16:54Z
    Writing application                      : mkvmerge v15.0.0 ('Duel with the Devil') 64-bit
    Writing library                          : libebml v1.3.5 + libmatroska v1.4.5 / Lavf57.7.2

    Video
    ID                                       : 1
    Format                                   : AVC
    Format/Info                              : Advanced Video Codec
    Format profile                           : High@L4.1
    Format settings                          : CABAC / 4 Ref Frames
    Format settings, CABAC                   : Yes
    Format settings, RefFrames               : 4 frames
    Codec ID                                 : V_MPEG4/ISO/AVC
    Duration                                 : 1 h 54 min
    Bit rate                                 : 9 006 kb/s
    Width                                    : 1 920 pixels
    Height                                   : 1 080 pixels
    Display aspect ratio                     : 16:9
    Frame rate mode                          : Constant
    Frame rate                               : 23.976 (24000/1001) FPS
    Color space                              : YUV
    Chroma subsampling                       : 4:2:0
    Bit depth                                : 8 bits
    Scan type                                : Progressive
    Bits/(Pixel*Frame)                       : 0.181
    Stream size                              : 7.20 GiB (89%)
    Title                                    : Grease 2 (1982) Full 1080p Latino
    Writing library                          : x264 core 148 r2708 86b7198
    Encoding settings                        : cabac=1 / ref=4 / deblock=1:0:0 / analyse=0x3:0x133 / me=esa / subme=9 / psy=1 / psy_rd=1.00:0.00 / mixed_ref=1 / me_range=16 / chroma_me=1 / trellis=2 / 8x8dct=1 / cqm=0 / deadzone=21,11 / fast_pskip=1 / chroma_qp_offset=-2 / threads=34 / lookahead_threads=2 / sliced_threads=0 / nr=0 / decimate=1 / interlaced=0 / bluray_compat=0 / constrained_intra=0 / bframes=3 / b_pyramid=2 / b_adapt=2 / b_bias=0 / direct=3 / weightb=1 / open_gop=0 / weightp=2 / keyint=240 / keyint_min=24 / scenecut=40 / intra_refresh=0 / rc_lookahead=60 / rc=crf / mbtree=1 / crf=20.0 / qcomp=0.60 / qpmin=0 / qpmax=69 / qpstep=4 / vbv_maxrate=62500 / vbv_bufsize=78125 / crf_max=0.0 / nal_hrd=none / filler=0 / ip_ratio=1.40 / aq=1:1.00
    Language                                 : English
    Default                                  : Yes
    Forced                                   : No
    Color range                              : Limited
    Color primaries                          : BT.709
    Transfer characteristics                 : BT.709
    Matrix coefficients                      : BT.709
    Statistics Tags Issue                    : mkvmerge v15.0.0 ('Duel with the Devil') 64-bit 2018-05-16 02:42:06 / mkvmerge v15.0.0 ('Duel with the Devil') 64-bit 2018-05-16 02:42:06 / UTC 2018-05-15T06:16:54Z
    FromStats_BitRate                        : 9181569
    FromStats_Duration                       : 01:54:24.900000000
    FromStats_FrameCount                     : 164593
    FromStats_StreamSize                     : 7878819946

    Audio #1
    ID                                       : 2
    Format                                   : AC-3
    Format/Info                              : Audio Coding 3
    Format settings, Endianness              : Big
    Codec ID                                 : A_AC3
    Duration                                 : 1 h 54 min
    Bit rate mode                            : Constant
    Bit rate                                 : 224 kb/s
    Channel(s)                               : 2 channels
    Channel positions                        : Front: L R
    Sampling rate                            : 48.0 kHz
    Frame rate                               : 31.250 FPS (1536 SPF)
    Bit depth                                : 16 bits
    Compression mode                         : Lossy
    Stream size                              : 183 MiB (2%)
    Language                                 : Spanish
    Service kind                             : Complete Main
    Default                                  : Yes
    Forced                                   : No
    Statistics Tags Issue                    : mkvmerge v15.0.0 ('Duel with the Devil') 64-bit 2018-05-16 02:42:06 / mkvmerge v15.0.0 ('Duel with the Devil') 64-bit 2018-05-16 02:42:06 / UTC 2018-05-15T06:16:54Z
    FromStats_BitRate                        : 224000
    FromStats_Duration                       : 01:54:24.960000000
    FromStats_FrameCount                     : 214530
    FromStats_StreamSize                     : 192218880

    Audio #2
    ID                                       : 3
    Format                                   : AC-3
    Format/Info                              : Audio Coding 3
    Format settings, Endianness              : Big
    Codec ID                                 : A_AC3
    Duration                                 : 1 h 54 min
    Bit rate mode                            : Constant
    Bit rate                                 : 640 kb/s
    Channel(s)                               : 6 channels
    Channel positions                        : Front: L C R, Side: L R, LFE
    Sampling rate                            : 48.0 kHz
    Frame rate                               : 31.250 FPS (1536 SPF)
    Bit depth                                : 16 bits
    Compression mode                         : Lossy
    Stream size                              : 524 MiB (6%)
    Language                                 : English
    Service kind                             : Complete Main
    Default                                  : No
    Forced                                   : No
    Statistics Tags Issue                    : mkvmerge v15.0.0 ('Duel with the Devil') 64-bit 2018-05-16 02:42:06 / mkvmerge v15.0.0 ('Duel with the Devil') 64-bit 2018-05-16 02:42:06 / UTC 2018-05-15T06:16:54Z
    FromStats_BitRate                        : 640000
    FromStats_Duration                       : 01:54:24.960000000
    FromStats_FrameCount                     : 214530
    FromStats_StreamSize                     : 549196800

    Text #1
    ID                                       : 4
    Format                                   : PGS
    Muxing mode                              : zlib
    Codec ID                                 : S_HDMV/PGS
    Codec ID/Info                            : Picture based subtitle format used on BDs/HD-DVDs
    Language                                 : English
    Default                                  : No
    Forced                                   : No
    Statistics Tags Issue                    : mkvmerge v15.0.0 ('Duel with the Devil') 64-bit 2018-05-16 02:42:06 / mkvmerge v15.0.0 ('Duel with the Devil') 64-bit 2018-05-16 02:42:06 / UTC 2018-05-15T06:16:54Z
    FromStats_BitRate                        : 40664
    FromStats_Duration                       : 01:50:40.551000000
    FromStats_FrameCount                     : 3024
    FromStats_StreamSize                     : 33754451

    Text #2
    ID                                       : 5
    Format                                   : PGS
    Muxing mode                              : zlib
    Codec ID                                 : S_HDMV/PGS
    Codec ID/Info                            : Picture based subtitle format used on BDs/HD-DVDs
    Language                                 : Spanish
    Default                                  : No
    Forced                                   : No
    Statistics Tags Issue                    : mkvmerge v15.0.0 ('Duel with the Devil') 64-bit 2018-05-16 02:42:06 / mkvmerge v15.0.0 ('Duel with the Devil') 64-bit 2018-05-16 02:42:06 / UTC 2018-05-15T06:16:54Z
    FromStats_BitRate                        : 33539
    FromStats_Duration                       : 01:54:04.129000000
    FromStats_FrameCount                     : 2561
    FromStats_StreamSize                     : 28693979

    Menu
    00:00:00.000                             : :Chapter 1
    00:04:29.394                             : :Chapter 2
    00:10:43.601                             : :Chapter 3
    00:16:46.797                             : :Chapter 4
    00:22:41.986                             : :Chapter 5
    00:28:36.673                             : :Chapter 6
    00:31:56.623                             : :Chapter 7
    00:38:34.395                             : :Chapter 8
    00:44:58.321                             : :Chapter 9
    00:51:07.231                             : :Chapter 10
    00:58:04.773                             : :Chapter 11
    01:04:45.590                             : :Chapter 12
    01:10:36.441                             : :Chapter 13
    01:13:31.699                             : :Chapter 14
    01:24:13.465                             : :Chapter 15
    01:31:24.437                             : :Chapter 16
    01:38:34.617                             : :Chapter 17
    01:44:30.639                             : :Chapter 18

  • Peso: 8.05 GiB

Sinopsis

Michael, un joven inglés que estudia en un instituto norteamericano, se enamora de Stephanie, líder del grupo de animadoras, pero que sólo salen con los miembros del club de chicos local.

Ficha técnica

Video trailer de la película

Enlaces de descarga

Rip de Bluray

Descargar Grease 2 (1982) Full 1080p Latino




Aportes de DPeliculasHDmega la pass es:dpeliculashdmega.org Aportes de CinemaniaHD la pass es:cinemaniahdd.com

Películas relacionadas

  • Los Gustos y Los Colores (2018) NF 1080p Latino

    2018
    Los Gustos y Los Colores (2018) NF 1080p Latino

    0.0 1h 35m 2018

    Justo cuando Simone se anima a contarle a su conservadora familia judía que es lesbiana, se siente atraída...

    Director: Myriam Aziza

    Género: Comedia

    Actores: Stéphane Debac

  • The lovers (2017) 1080p Latino

    2017
    The lovers (2017) 1080p Latino

    1.0 1h 37m 2017

    Mary y Michael forman un matrimonio de mediana edad que tras años de rutina ambos tienen un amante,...

    Director: Azazel Jacobs

    Género: 1080p Portada Negra

    Actores: Tyler Ross

  • Lady Bird (2017) Full 1080p Latino

    2017
    Lady Bird (2017) Full 1080p Latino

    5.0 1h 34m 2017

    Sacramento, California, año 2002. Una joven llamada Christine McPherson (Saoirse Ronan), apodada como...

    Director: Jonas Spaccarotelli

    Género: Comedia

    Actores: Tracy Letts

  • Plan de escape (2013) Full 1080p Latino

    2013
    Plan de escape (2013) Full 1080p Latino

    3.0 1h 56m 2013

    El experto en seguridad Ray Breslin prueba sus teorías poco convencionales en diseño de prisiones elaborando...

    Director: Mikael Håfström

    Género: Acción

    Actores: Vinnie Jones

  • No me las toquen (2018) 1080p Latino

    2018
    No me las toquen (2018) 1080p Latino

    3.0 1h 42m 2018

    Cuando una madre y dos padres descubren que sus respectivas hijas han hecho un pacto para perder la virginidad...

    Director: Kay Cannon

    Género: 1080p Portada Negra

    Actores: T.C. Carter

Comentarios 0