GeoTormenta (2017) 1080p Latino

2.401 vistas
1 estrella2 estrellas3 estrellas4 estrellas5 estrellas (Ninguna valoración todavía)
Cargando…

Información de GeoTormenta (2017) 1080p Latino

Datos de la película

  • Calidad: 1080p
  • Audio: Español Latino AC3 5.1 iTUNES - Ingles AC3 5.1 BLURAY
  • Subtitulos: Español Latino SRT- FORZADOS SRT
  • Resolución: 1920X800p
  • Formato: MKV
  • Codec: H.264
  • Encoder: Dracarys
  • Mediainfo: Clic para Mostrar Datos Ver
  • Format                                   : Matroska
    Format version                           : Version 4 / Version 2
    File size                                : 3.42 GiB
    Duration                                 : 1 h 49 min
    Overall bit rate                         : 4 485 kb/s
    Movie name                               : CinemaniaHDD.com
    Encoded date                             : UTC 2018-01-16 09:03:42 / UTC 2018-01-16T08:20:19Z
    Writing application                      : mkvmerge v15.0.0 ('Duel with the Devil') 64-bit
    Writing library                          : libebml v1.3.5 + libmatroska v1.4.5 / Lavf57.7.2

    Video
    ID                                       : 1
    Format                                   : AVC
    Format/Info                              : Advanced Video Codec
    Format profile                           : High@L4.1
    Format settings                          : CABAC / 4 Ref Frames
    Format settings, CABAC                   : Yes
    Format settings, RefFrames               : 4 frames
    Codec ID                                 : V_MPEG4/ISO/AVC
    Duration                                 : 1 h 49 min
    Bit rate                                 : 3 500 kb/s
    Width                                    : 1 920 pixels
    Height                                   : 800 pixels
    Display aspect ratio                     : 2.40:1
    Frame rate mode                          : Constant
    Frame rate                               : 23.976 (24000/1001) FPS
    Color space                              : YUV
    Chroma subsampling                       : 4:2:0
    Bit depth                                : 8 bits
    Scan type                                : Progressive
    Bits/(Pixel*Frame)                       : 0.095
    Stream size                              : 2.57 GiB (75%)
    Title                                    : GeoTormenta (2017) 1080p Latino
    Writing library                          : x264 core 148 r2708 86b7198
    Encoding settings                        : cabac=1 / ref=3 / deblock=1:0:0 / analyse=0x3:0x113 / me=hex / subme=7 / psy=1 / psy_rd=1.00:0.00 / mixed_ref=1 / me_range=16 / chroma_me=1 / trellis=1 / 8x8dct=1 / cqm=0 / deadzone=21,11 / fast_pskip=1 / chroma_qp_offset=-2 / threads=25 / lookahead_threads=4 / sliced_threads=0 / nr=0 / decimate=1 / interlaced=0 / bluray_compat=0 / constrained_intra=0 / bframes=3 / b_pyramid=2 / b_adapt=1 / b_bias=0 / direct=1 / weightb=1 / open_gop=0 / weightp=2 / keyint=240 / keyint_min=24 / scenecut=40 / intra_refresh=0 / rc_lookahead=40 / rc=abr / mbtree=1 / bitrate=3500 / ratetol=1.0 / qcomp=0.60 / qpmin=0 / qpmax=69 / qpstep=4 / vbv_maxrate=62500 / vbv_bufsize=78125 / nal_hrd=none / filler=0 / ip_ratio=1.40 / aq=1:1.00
    Language                                 : English
    Default                                  : Yes
    Forced                                   : No
    Color range                              : Limited
    Color primaries                          : BT.709
    Transfer characteristics                 : BT.709
    Matrix coefficients                      : BT.709
    Statistics Tags Issue                    : mkvmerge v15.0.0 ('Duel with the Devil') 64-bit 2018-01-16 09:03:42 / mkvmerge v15.0.0 ('Duel with the Devil') 64-bit 2018-01-16 09:03:42 / UTC 2018-01-16T08:20:19Z
    FromStats_BitRate                        : 3458473
    FromStats_Duration                       : 01:49:07.124000000
    FromStats_FrameCount                     : 156974
    FromStats_StreamSize                     : 2830382254

    Audio #1
    ID                                       : 2
    Format                                   : AC-3
    Format/Info                              : Audio Coding 3
    Format settings, Endianness              : Big
    Codec ID                                 : A_AC3
    Duration                                 : 1 h 49 min
    Bit rate mode                            : Constant
    Bit rate                                 : 384 kb/s
    Channel(s)                               : 6 channels
    Channel positions                        : Front: L C R, Side: L R, LFE
    Sampling rate                            : 48.0 kHz
    Frame rate                               : 31.250 FPS (1536 SPF)
    Bit depth                                : 16 bits
    Compression mode                         : Lossy
    Delay relative to video                  : 1 s 495 ms
    Stream size                              : 300 MiB (9%)
    Language                                 : Spanish
    Service kind                             : Complete Main
    Default                                  : Yes
    Forced                                   : No
    Statistics Tags Issue                    : mkvmerge v15.0.0 ('Duel with the Devil') 64-bit 2018-01-16 09:03:42 / mkvmerge v15.0.0 ('Duel with the Devil') 64-bit 2018-01-16 09:03:42 / UTC 2018-01-16T08:20:19Z
    FromStats_BitRate                        : 384000
    FromStats_Duration                       : 01:49:04.416000000
    FromStats_FrameCount                     : 204513
    FromStats_StreamSize                     : 314131968

    Audio #2
    ID                                       : 3
    Format                                   : AC-3
    Format/Info                              : Audio Coding 3
    Format settings, Endianness              : Big
    Codec ID                                 : A_AC3
    Duration                                 : 1 h 49 min
    Bit rate mode                            : Constant
    Bit rate                                 : 640 kb/s
    Channel(s)                               : 6 channels
    Channel positions                        : Front: L C R, Side: L R, LFE
    Sampling rate                            : 48.0 kHz
    Frame rate                               : 31.250 FPS (1536 SPF)
    Bit depth                                : 16 bits
    Compression mode                         : Lossy
    Delay relative to video                  : -5 ms
    Stream size                              : 500 MiB (14%)
    Language                                 : English
    Service kind                             : Complete Main
    Default                                  : No
    Forced                                   : No
    Statistics Tags Issue                    : mkvmerge v15.0.0 ('Duel with the Devil') 64-bit 2018-01-16 09:03:42 / mkvmerge v15.0.0 ('Duel with the Devil') 64-bit 2018-01-16 09:03:42 / UTC 2018-01-16T08:20:19Z
    FromStats_BitRate                        : 640000
    FromStats_Duration                       : 01:49:07.136000000
    FromStats_FrameCount                     : 204598
    FromStats_StreamSize                     : 523770880

    Text #1
    ID                                       : 4
    Format                                   : UTF-8
    Codec ID                                 : S_TEXT/UTF8
    Codec ID/Info                            : UTF-8 Plain Text
    Title                                    : Forzados
    Language                                 : Spanish
    Default                                  : Yes
    Forced                                   : Yes
    Statistics Tags Issue                    : mkvmerge v15.0.0 ('Duel with the Devil') 64-bit 2018-01-16 09:03:42 / mkvmerge v15.0.0 ('Duel with the Devil') 64-bit 2018-01-16 09:03:42 / UTC 2018-01-16T08:20:19Z
    FromStats_BitRate                        : 2
    FromStats_Duration                       : 01:35:26.352000000
    FromStats_FrameCount                     : 61
    FromStats_StreamSize                     : 1899

    Text #2
    ID                                       : 5
    Format                                   : UTF-8
    Codec ID                                 : S_TEXT/UTF8
    Codec ID/Info                            : UTF-8 Plain Text
    Language                                 : Spanish
    Default                                  : No
    Forced                                   : No
    Statistics Tags Issue                    : mkvmerge v15.0.0 ('Duel with the Devil') 64-bit 2018-01-16 09:03:42 / mkvmerge v15.0.0 ('Duel with the Devil') 64-bit 2018-01-16 09:03:42 / UTC 2018-01-16T08:20:19Z
    FromStats_BitRate                        : 69
    FromStats_Duration                       : 01:40:54.639000000
    FromStats_FrameCount                     : 1512
    FromStats_StreamSize                     : 52679

    Menu
    00:00:00.000                             : :00:00:00.000
    00:08:33.972                             : :00:08:33.972
    00:16:52.053                             : :00:16:52.053
    00:27:20.556                             : :00:27:20.556
    00:39:13.184                             : :00:39:13.184
    00:48:47.925                             : :00:48:47.925
    01:00:24.746                             : :01:00:24.746
    01:11:01.090                             : :01:11:01.090
    01:19:14.959                             : :01:19:14.959
    01:30:08.570                             : :01:30:08.570
    01:40:25.811                             : :01:40:25.728

  • Peso: 3.42 GiB

Sinopsis

¿Qué pasaría si después de una década de devastadores fenómenos climaticos, finalmente se descubriera la forma de controlar a la madre naturaleza y la destrucción que causa? Cuando el catastrófico cambio climático amenaza la supervivencia de la vida en la Tierra, los gobiernos se unen para crear el Project Dutch Boy: una red global de satélites que rodean el planeta armados con tecnología de geoingeniería diseñada para evitar los desastres naturales. Después de haber protegido al planeta durante dos años, algo comienza a salir mal. Dos hermanos alejados (Gerard Butler y Jim Sturgess) tienen la tarea de resolver el desperfecto del programa antes de que una geo-tormenta se trague al mundo.

Ficha técnica

Video trailer de la película

Enlaces de descarga

Rip de Bluray

Descargar GeoTormenta (2017) 1080p Latino




Aportes de DPeliculasHDmega la pass es:dpeliculashdmega.org Aportes de CinemaniaHD la pass es:cinemaniahdd.com
Guardado en : Acción , Ciencia ficción , Suspense

Películas relacionadas

  • Sicario (2015) Full 1080p Latino

    2015
    Sicario (2015) Full 1080p Latino

    5.0 2h 1m 2015

    En la zona fronteriza que se extiende entre Estados Unidos y México la joven Kate Macer, una idealista...

    Director: Judi Townsend

    Género: Acción

    Actores: Victor Garber

  • Fahrenheit 451 (2018) Full 1080p Latino

    2018
    Fahrenheit 451 (2018) Full 1080p Latino

    5.0 1h 36m 2018

    Michael B. Jordan y Michael Shannon protagonizan esta adaptación de HBO de la clásica novela distópica...

    Director: Ramin Bahrani

    Género: Ciencia ficción

    Actores: Tim Post

Comentarios 1
  • Mblaq-MadTown ^^ - 18 enero, 2018

    descargada,descomprimida y vista todo ok muchas gracias ^^