Geo-tormenta (2017) Full 1080p Latino

3.349 vistas
1 estrella2 estrellas3 estrellas4 estrellas5 estrellas (2 votos, promedio: 5,00 de 5)
Cargando…

Información de Geo-tormenta (2017) Full 1080p Latino

Datos de la película

  • Calidad: Full 1080p
  • Audio: Español Latino AC3 5.1 BLURAY - Ingles DTS 5.1 BLURAY
  • Subtitulos: Español Latino PGS - Ingles PGS
  • Resolución: 1920X1080p
  • Formato: MKV
  • Codec: H.264
  • Encoder: CinemaniaHD
  • Mediainfo: Clic para Mostrar Datos Ver
  • Format                                   : Matroska
    Format version                           : Version 4 / Version 2
    File size                                : 5.87 GiB
    Duration                                 : 1 h 49 min
    Overall bit rate                         : 7 697 kb/s
    Movie name                               : CinemaniaHDD.com
    Encoded date                             : UTC 2018-01-20 07:31:46 / UTC 2018-01-20T03:48:42Z
    Writing application                      : mkvmerge v15.0.0 ('Duel with the Devil') 64-bit
    Writing library                          : libebml v1.3.5 + libmatroska v1.4.5 / Lavf57.7.2

    Video
    ID                                       : 1
    Format                                   : AVC
    Format/Info                              : Advanced Video Codec
    Format profile                           : High@L4.1
    Format settings                          : CABAC / 4 Ref Frames
    Format settings, CABAC                   : Yes
    Format settings, RefFrames               : 4 frames
    Codec ID                                 : V_MPEG4/ISO/AVC
    Duration                                 : 1 h 49 min
    Bit rate                                 : 5 586 kb/s
    Width                                    : 1 920 pixels
    Height                                   : 1 080 pixels
    Display aspect ratio                     : 16:9
    Frame rate mode                          : Constant
    Frame rate                               : 23.976 (24000/1001) FPS
    Color space                              : YUV
    Chroma subsampling                       : 4:2:0
    Bit depth                                : 8 bits
    Scan type                                : Progressive
    Bits/(Pixel*Frame)                       : 0.112
    Stream size                              : 4.26 GiB (73%)
    Title                                    : Geo-tormenta (2017) Full 1080p Latino
    Writing library                          : x264 core 148 r2708 86b7198
    Encoding settings                        : cabac=1 / ref=4 / deblock=1:0:0 / analyse=0x3:0x133 / me=esa / subme=10 / psy=1 / psy_rd=1.00:0.00 / mixed_ref=1 / me_range=24 / chroma_me=1 / trellis=2 / 8x8dct=1 / cqm=0 / deadzone=21,11 / fast_pskip=1 / chroma_qp_offset=-2 / threads=34 / lookahead_threads=5 / sliced_threads=0 / nr=0 / decimate=1 / interlaced=0 / bluray_compat=0 / constrained_intra=0 / bframes=8 / b_pyramid=2 / b_adapt=2 / b_bias=0 / direct=3 / weightb=1 / open_gop=0 / weightp=2 / keyint=240 / keyint_min=24 / scenecut=40 / intra_refresh=0 / rc_lookahead=60 / rc=crf / mbtree=1 / crf=20.0 / qcomp=0.60 / qpmin=0 / qpmax=69 / qpstep=4 / vbv_maxrate=62500 / vbv_bufsize=78125 / crf_max=0.0 / nal_hrd=none / filler=0 / ip_ratio=1.40 / aq=1:1.00
    Language                                 : English
    Default                                  : Yes
    Forced                                   : No
    Color range                              : Limited
    Color primaries                          : BT.709
    Transfer characteristics                 : BT.709
    Matrix coefficients                      : BT.709
    Statistics Tags Issue                    : mkvmerge v15.0.0 ('Duel with the Devil') 64-bit 2018-01-20 07:31:46 / mkvmerge v15.0.0 ('Duel with the Devil') 64-bit 2018-01-20 07:31:46 / UTC 2018-01-20T03:48:42Z
    FromStats_BitRate                        : 5711981
    FromStats_Duration                       : 01:49:07.166000000
    FromStats_FrameCount                     : 156975
    FromStats_StreamSize                     : 4674661088

    Audio #1
    ID                                       : 2
    Format                                   : AC-3
    Format/Info                              : Audio Coding 3
    Format settings, Endianness              : Big
    Codec ID                                 : A_AC3
    Duration                                 : 1 h 49 min
    Bit rate mode                            : Constant
    Bit rate                                 : 448 kb/s
    Channel(s)                               : 6 channels
    Channel positions                        : Front: L C R, Side: L R, LFE
    Sampling rate                            : 48.0 kHz
    Frame rate                               : 31.250 FPS (1536 SPF)
    Bit depth                                : 16 bits
    Compression mode                         : Lossy
    Stream size                              : 350 MiB (6%)
    Language                                 : Spanish
    Service kind                             : Complete Main
    Default                                  : Yes
    Forced                                   : No
    Statistics Tags Issue                    : mkvmerge v15.0.0 ('Duel with the Devil') 64-bit 2018-01-20 07:31:46 / mkvmerge v15.0.0 ('Duel with the Devil') 64-bit 2018-01-20 07:31:46 / UTC 2018-01-20T03:48:42Z
    FromStats_BitRate                        : 448000
    FromStats_Duration                       : 01:49:07.168000000
    FromStats_FrameCount                     : 204599
    FromStats_StreamSize                     : 366641408

    Audio #2
    ID                                       : 3
    Format                                   : DTS
    Format/Info                              : Digital Theater Systems
    Mode                                     : 16
    Format settings, Endianness              : Big
    Codec ID                                 : A_DTS
    Duration                                 : 1 h 49 min
    Bit rate mode                            : Constant
    Bit rate                                 : 1 509 kb/s
    Channel(s)                               : 6 channels
    Channel positions                        : Front: L C R, Side: L R, LFE
    Sampling rate                            : 48.0 kHz
    Frame rate                               : 93.750 FPS (512 SPF)
    Bit depth                                : 24 bits
    Compression mode                         : Lossy
    Stream size                              : 1.15 GiB (20%)
    Language                                 : English
    Default                                  : No
    Forced                                   : No
    Statistics Tags Issue                    : mkvmerge v15.0.0 ('Duel with the Devil') 64-bit 2018-01-20 07:31:46 / mkvmerge v15.0.0 ('Duel with the Devil') 64-bit 2018-01-20 07:31:46 / UTC 2018-01-20T03:48:42Z
    FromStats_BitRate                        : 1509000
    FromStats_Duration                       : 01:49:07.168000000
    FromStats_FrameCount                     : 613797
    FromStats_StreamSize                     : 1234959564

    Text #1
    ID                                       : 4
    Format                                   : PGS
    Muxing mode                              : zlib
    Codec ID                                 : S_HDMV/PGS
    Codec ID/Info                            : Picture based subtitle format used on BDs/HD-DVDs
    Language                                 : Spanish
    Default                                  : No
    Forced                                   : No
    Statistics Tags Issue                    : mkvmerge v15.0.0 ('Duel with the Devil') 64-bit 2018-01-20 07:31:46 / mkvmerge v15.0.0 ('Duel with the Devil') 64-bit 2018-01-20 07:31:46 / UTC 2018-01-20T03:48:42Z
    FromStats_BitRate                        : 40888
    FromStats_Duration                       : 01:42:48.996000000
    FromStats_FrameCount                     : 3026
    FromStats_StreamSize                     : 31529810

    Text #2
    ID                                       : 5
    Format                                   : PGS
    Muxing mode                              : zlib
    Codec ID                                 : S_HDMV/PGS
    Codec ID/Info                            : Picture based subtitle format used on BDs/HD-DVDs
    Language                                 : English
    Default                                  : No
    Forced                                   : No
    Statistics Tags Issue                    : mkvmerge v15.0.0 ('Duel with the Devil') 64-bit 2018-01-20 07:31:46 / mkvmerge v15.0.0 ('Duel with the Devil') 64-bit 2018-01-20 07:31:46 / UTC 2018-01-20T03:48:42Z
    FromStats_BitRate                        : 43204
    FromStats_Duration                       : 01:48:07.439000000
    FromStats_FrameCount                     : 3248
    FromStats_StreamSize                     : 35036171

    Menu
    00:00:00.000                             : :Chapter 1
    00:08:33.972                             : :Chapter 2
    00:16:52.053                             : :Chapter 3
    00:27:20.556                             : :Chapter 4
    00:39:13.184                             : :Chapter 5
    00:48:47.925                             : :Chapter 6
    01:00:24.746                             : :Chapter 7
    01:11:01.090                             : :Chapter 8
    01:19:15.084                             : :Chapter 9
    01:30:08.570                             : :Chapter 10
    01:40:25.728                             : :Chapter 11

     

  • Peso: 5.87 GiB

Sinopsis

¿Qué pasaría si después de una década de devastadores fenómenos climaticos, finalmente se descubriera la forma de controlar a la madre naturaleza y la destrucción que causa? Cuando el catastrófico cambio climático amenaza la supervivencia de la vida en la Tierra, los gobiernos se unen para crear el Project Dutch Boy: una red global de satélites que rodean el planeta armados con tecnología de geoingeniería diseñada para evitar los desastres naturales. Después de haber protegido al planeta durante dos años, algo comienza a salir mal. Dos hermanos alejados (Gerard Butler y Jim Sturgess) tienen la tarea de resolver el desperfecto del programa antes de que una geo-tormenta se trague al mundo.

Ficha técnica

Video trailer de la película

Enlaces de descarga

Rip de Bluray

Descargar Geo-tormenta (2017) Full 1080p Latino




Aportes de DPeliculasHDmega la pass es:dpeliculashdmega.org Aportes de CinemaniaHD la pass es:cinemaniahdd.com

Películas relacionadas

  • The Night Comes For Us (2018) NF 1080p Latino

    2018
    The Night Comes For Us (2018) NF 1080p Latino

    1.0 2h 1m 2018

    The Night Comes For Us (2018) NF 1080p Latino; Mega, Google Drive. Un antiguo sicario debe proteger a...

    Director: Timo Tjahjanto

    Género: Acción

    Actores: Zack Lee

  • Illang: La brigada del lobo (2018) NF 1080p Latino

    2018
    Illang: La brigada del lobo (2018) NF 1080p Latino

    1.0 2h 19m 2018

    Descargar Illang: La brigada del lobo (2018) NF 1080p Latino; Mega, Google Drive. Basada en el anime...

    Director: Kim Jee-woon

    Género: Acción

    Actores: Shin Eun-soo

  • Mentes poderosas (2018) 1080p Latino

    2018
    Mentes poderosas (2018) 1080p Latino

    1.0 1h 45m 2018

    Descargar Mentes poderosas (2018) 1080p Latino; Mega, Google Drive. Encarcelados en un mundo adulto...

    Director: Jennifer Yuh Nelson

    Género: Ciencia ficción

    Actores: William Walker

  • Paciente Cero (2018) Full 1080p Latino

    2018
    Paciente Cero (2018) Full 1080p Latino

    3.7 1h 26m 2018

    Paciente Cero (2018) Full 1080p Latino; Mega, Google Drive. Tras una pandemia sin precedentes, la Humanidad...

    Director: Stefan Ruzowitzky

    Género: Acción

    Actores: Yumiko Hanasaka

Comentarios 9
  • jonas - 13 febrero, 2018

    no puedo abrir el rar me pone que no es la contraseña que hago por fa,

    • Dracarys - 14 febrero, 2018

      cinemaniahdd.net

  • slash - 28 enero, 2018

    Muchas gracias, calidad soberbia.

  • Eduardo - 23 enero, 2018

    No hay para descargar en mega ?

    • Dracarys - 23 enero, 2018

      Agregado

      • Eduardo - 23 enero, 2018

        Muchas gracias son los mejores 🙂

  • francisco - 21 enero, 2018

    amigo la parte no se puede descargar puede estar caido el enlace

    • Dracarys - 22 enero, 2018

      Todos los enlaces están online

  • TorukMato - 21 enero, 2018

    me llleBO…EstA AmIgO…Thanks!!**