Garfield (2004) Full 1080p Latino

883 vistas
1 estrella2 estrellas3 estrellas4 estrellas5 estrellas (8 votos, promedio: 4,38 de 5)
Cargando…

Información de Garfield (2004) Full 1080p Latino

Datos de la película

  • Calidad: Full 1080p
  • Audio: Español Latino AC3 5.1 BLURAY - Ingles DTS 5.1 BLURAY
  • Subtitulos: Español Latino PGS - Ingles PGS
  • Resolución: 1920x1080p
  • Formato: MKV
  • Codec: H.264
  • Encoder: Dracarys
  • Mediainfo: Clic para Mostrar Datos Ver
  • Format                                   : Matroska
    Format version                           : Version 4 / Version 2
    File size                                : 4.81 GiB
    Duration                                 : 1 h 20 min
    Overall bit rate                         : 8 583 kb/s
    Movie name                               : CinemaniaHDD.net
    Encoded date                             : UTC 2018-05-29 20:07:37 / UTC 2018-05-25T07:42:23Z
    Writing application                      : mkvmerge v15.0.0 ('Duel with the Devil') 64-bit
    Writing library                          : libebml v1.3.5 + libmatroska v1.4.5 / Lavf57.7.2

    Video
    ID                                       : 1
    Format                                   : AVC
    Format/Info                              : Advanced Video Codec
    Format profile                           : High@L4.1
    Format settings                          : CABAC / 4 Ref Frames
    Format settings, CABAC                   : Yes
    Format settings, RefFrames               : 4 frames
    Codec ID                                 : V_MPEG4/ISO/AVC
    Duration                                 : 1 h 20 min
    Bit rate                                 : 6 456 kb/s
    Width                                    : 1 920 pixels
    Height                                   : 1 080 pixels
    Display aspect ratio                     : 16:9
    Frame rate mode                          : Constant
    Frame rate                               : 23.976 (24000/1001) FPS
    Color space                              : YUV
    Chroma subsampling                       : 4:2:0
    Bit depth                                : 8 bits
    Scan type                                : Progressive
    Bits/(Pixel*Frame)                       : 0.130
    Stream size                              : 3.62 GiB (75%)
    Title                                    : Garfield (2004) Full 1080p Latino
    Writing library                          : x264 core 148 r2708 86b7198
    Encoding settings                        : cabac=1 / ref=4 / deblock=1:0:0 / analyse=0x3:0x133 / me=esa / subme=9 / psy=1 / psy_rd=1.00:0.00 / mixed_ref=1 / me_range=16 / chroma_me=1 / trellis=2 / 8x8dct=1 / cqm=0 / deadzone=21,11 / fast_pskip=1 / chroma_qp_offset=-2 / threads=34 / lookahead_threads=2 / sliced_threads=0 / nr=0 / decimate=1 / interlaced=0 / bluray_compat=0 / constrained_intra=0 / bframes=3 / b_pyramid=2 / b_adapt=2 / b_bias=0 / direct=3 / weightb=1 / open_gop=0 / weightp=2 / keyint=240 / keyint_min=24 / scenecut=40 / intra_refresh=0 / rc_lookahead=60 / rc=crf / mbtree=1 / crf=20.0 / qcomp=0.60 / qpmin=0 / qpmax=69 / qpstep=4 / vbv_maxrate=62500 / vbv_bufsize=78125 / crf_max=0.0 / nal_hrd=none / filler=0 / ip_ratio=1.40 / aq=1:1.00
    Language                                 : English
    Default                                  : Yes
    Forced                                   : No
    Color range                              : Limited
    Color primaries                          : BT.709
    Transfer characteristics                 : BT.709
    Matrix coefficients                      : BT.709
    Statistics Tags Issue                    : mkvmerge v15.0.0 ('Duel with the Devil') 64-bit 2018-05-29 20:07:37 / mkvmerge v15.0.0 ('Duel with the Devil') 64-bit 2018-05-29 20:07:37 / UTC 2018-05-25T07:42:23Z
    FromStats_BitRate                        : 6599782
    FromStats_Duration                       : 01:20:12.266000000
    FromStats_FrameCount                     : 115379
    FromStats_StreamSize                     : 3969988718

    Audio #1
    ID                                       : 2
    Format                                   : AC-3
    Format/Info                              : Audio Coding 3
    Format settings, Endianness              : Big
    Codec ID                                 : A_AC3
    Duration                                 : 1 h 20 min
    Bit rate mode                            : Constant
    Bit rate                                 : 448 kb/s
    Channel(s)                               : 6 channels
    Channel positions                        : Front: L C R, Side: L R, LFE
    Sampling rate                            : 48.0 kHz
    Frame rate                               : 31.250 FPS (1536 SPF)
    Bit depth                                : 16 bits
    Compression mode                         : Lossy
    Stream size                              : 257 MiB (5%)
    Language                                 : Spanish
    Service kind                             : Complete Main
    Default                                  : Yes
    Forced                                   : No
    Statistics Tags Issue                    : mkvmerge v15.0.0 ('Duel with the Devil') 64-bit 2018-05-29 20:07:37 / mkvmerge v15.0.0 ('Duel with the Devil') 64-bit 2018-05-29 20:07:37 / UTC 2018-05-25T07:42:23Z
    FromStats_BitRate                        : 448000
    FromStats_Duration                       : 01:20:12.288000000
    FromStats_FrameCount                     : 150384
    FromStats_StreamSize                     : 269488128

    Audio #2
    ID                                       : 3
    Format                                   : DTS
    Format/Info                              : Digital Theater Systems
    Mode                                     : 16
    Format settings, Endianness              : Big
    Codec ID                                 : A_DTS
    Duration                                 : 1 h 20 min
    Bit rate mode                            : Constant
    Bit rate                                 : 1 509 kb/s
    Channel(s)                               : 6 channels
    Channel positions                        : Front: L C R, Side: L R, LFE
    Sampling rate                            : 48.0 kHz
    Frame rate                               : 93.750 FPS (512 SPF)
    Bit depth                                : 24 bits
    Compression mode                         : Lossy
    Stream size                              : 866 MiB (18%)
    Language                                 : English
    Default                                  : No
    Forced                                   : No
    Statistics Tags Issue                    : mkvmerge v15.0.0 ('Duel with the Devil') 64-bit 2018-05-29 20:07:37 / mkvmerge v15.0.0 ('Duel with the Devil') 64-bit 2018-05-29 20:07:37 / UTC 2018-05-25T07:42:23Z
    FromStats_BitRate                        : 1508999
    FromStats_Duration                       : 01:20:12.267000000
    FromStats_FrameCount                     : 451150
    FromStats_StreamSize                     : 907713800

    Text #1
    ID                                       : 4
    Format                                   : PGS
    Muxing mode                              : zlib
    Codec ID                                 : S_HDMV/PGS
    Codec ID/Info                            : Picture based subtitle format used on BDs/HD-DVDs
    Language                                 : English
    Default                                  : No
    Forced                                   : No
    Statistics Tags Issue                    : mkvmerge v15.0.0 ('Duel with the Devil') 64-bit 2018-05-29 20:07:37 / mkvmerge v15.0.0 ('Duel with the Devil') 64-bit 2018-05-29 20:07:37 / UTC 2018-05-25T07:42:23Z
    FromStats_BitRate                        : 46723
    FromStats_Duration                       : 01:19:45.824000000
    FromStats_FrameCount                     : 2320
    FromStats_StreamSize                     : 27951113

    Text #2
    ID                                       : 5
    Format                                   : PGS
    Muxing mode                              : zlib
    Codec ID                                 : S_HDMV/PGS
    Codec ID/Info                            : Picture based subtitle format used on BDs/HD-DVDs
    Language                                 : Spanish
    Default                                  : No
    Forced                                   : No
    Statistics Tags Issue                    : mkvmerge v15.0.0 ('Duel with the Devil') 64-bit 2018-05-29 20:07:37 / mkvmerge v15.0.0 ('Duel with the Devil') 64-bit 2018-05-29 20:07:37 / UTC 2018-05-25T07:42:23Z
    FromStats_BitRate                        : 38135
    FromStats_Duration                       : 01:19:24.052000000
    FromStats_FrameCount                     : 1763
    FromStats_StreamSize                     : 22710074

    Menu
    00:00:00.000                             : :Chapter 1
    00:01:50.736                             : :Chapter 2
    00:03:59.197                             : :Chapter 3
    00:06:37.856                             : :Chapter 4
    00:08:32.971                             : :Chapter 5
    00:10:27.418                             : :Chapter 6
    00:12:19.447                             : :Chapter 7
    00:14:53.726                             : :Chapter 8
    00:18:55.801                             : :Chapter 9
    00:20:52.334                             : :Chapter 10
    00:23:36.540                             : :Chapter 11
    00:25:02.459                             : :Chapter 12
    00:28:07.019                             : :Chapter 13
    00:30:05.637                             : :Chapter 14
    00:31:35.477                             : :Chapter 15
    00:33:26.171                             : :Chapter 16
    00:42:21.330                             : :Chapter 17
    00:45:54.168                             : :Chapter 18
    00:50:17.139                             : :Chapter 19
    00:52:41.283                             : :Chapter 20
    00:57:31.114                             : :Chapter 21
    01:00:40.428                             : :Chapter 22
    01:02:11.853                             : :Chapter 23
    01:05:43.398                             : :Chapter 24
    01:06:18.933                             : :Chapter 25
    01:07:51.234                             : :Chapter 26
    01:11:17.982                             : :Chapter 27
    01:13:24.191                             : :Chapter 28

  • Peso: 4.81 GiB

Sinopsis

La vida no podría ser más dulce para Garfield, el gato al que todos adoran. Apalancado es un confortable sofá delante de la televisión, zampándose un buen trozo de lasaña (su comida favorita) y lanzando pullas a su angustiado dueño, Jon, Garfield se siente el dueño de su mundo. Cuando Jon lleva a Garfield a la consulta de la guapa veterinaria Liz Wilson, ésta le endosa a Jon una entusiasta y jadeante criatura que menea animosamente la cola, y representa todo lo que Garfield odia en la vida. Garfield conoce así a Odie, un perro adorable y no demasiado inteligente.

Ficha técnica

Video trailer de la película

Enlaces de descarga

Rip de Bluray

Descargar Garfield (2004) Full 1080p Latino




Aportes de DPeliculasHDmega la pass es:dpeliculashdmega.org Aportes de CinemaniaHD la pass es:cinemaniahdd.com

Películas relacionadas

  • Love on the Sidelines (2016) WEBDL 1080p Latino

    2016
    Love on the Sidelines (2016) WEBDL 1080p Latino

    0.0 1h 24m 2016

    Una joven sin buena suerte que cae en un trabajo como asistente personal de un mariscal de campo estrellado...

    Director: Terry Ingram

    Género: Comedia

    Actores: Victor Zinck Jr.

  • Sicario (2015) Full 1080p Latino

    2015
    Sicario (2015) Full 1080p Latino

    5.0 2h 1m 2015

    En la zona fronteriza que se extiende entre Estados Unidos y México la joven Kate Macer, una idealista...

    Director: Judi Townsend

    Género: Acción

    Actores: Victor Garber

  • Fahrenheit 451 (2018) Full 1080p Latino

    2018
    Fahrenheit 451 (2018) Full 1080p Latino

    5.0 1h 36m 2018

    Michael B. Jordan y Michael Shannon protagonizan esta adaptación de HBO de la clásica novela distópica...

    Director: Ramin Bahrani

    Género: Ciencia ficción

    Actores: Tim Post

Comentarios 0