Fast & Furious: Aún más rápido (2009) [Open Matte] WEB-DL 1080p Latino

617 vistas
1 estrella2 estrellas3 estrellas4 estrellas5 estrellas (2 votos, promedio: 5,00 de 5)
Cargando…

Información de Fast & Furious: Aún más rápido (2009) [Open Matte] WEB-DL 1080p Latino

Datos de la película

  • Calidad: WEBDL
  • Audio: Español Latino DTS 5.1 BLURAY - Ingles DTS 5.1 BLURAY
  • Subtitulos: Español Latino SRT- FORZADOS SRT
  • Resolución: 1920X1080p
  • Formato: MKV
  • Codec: H.264
  • Encoder: Dracarys
  • Mediainfo: Clic para Mostrar Datos Ver
  • Format                                   : Matroska
    Format version                           : Version 4 / Version 2
    File size                                : 10.7 GiB
    Duration                                 : 1 h 46 min
    Overall bit rate mode                    : Variable
    Overall bit rate                         : 14.3 Mb/s
    Encoded date                             : UTC 2018-01-28 00:55:21
    Writing application                      : mkvmerge v15.0.0 ('Duel with the Devil') 64-bit
    Writing library                          : libebml v1.3.5 + libmatroska v1.4.5

    Video
    ID                                       : 1
    Format                                   : AVC
    Format/Info                              : Advanced Video Codec
    Format profile                           : High@L4
    Format settings                          : CABAC / 4 Ref Frames
    Format settings, CABAC                   : Yes
    Format settings, RefFrames               : 4 frames
    Codec ID                                 : V_MPEG4/ISO/AVC
    Duration                                 : 1 h 46 min
    Bit rate mode                            : Variable
    Bit rate                                 : 12.0 Mb/s
    Maximum bit rate                         : 15.0 Mb/s
    Width                                    : 1 920 pixels
    Height                                   : 1 080 pixels
    Display aspect ratio                     : 16:9
    Frame rate mode                          : Constant
    Frame rate                               : 23.976 (24000/1001) FPS
    Color space                              : YUV
    Chroma subsampling                       : 4:2:0
    Bit depth                                : 8 bits
    Scan type                                : Progressive
    Bits/(Pixel*Frame)                       : 0.241
    Stream size                              : 8.95 GiB (84%)
    Language                                 : English
    Default                                  : Yes
    Forced                                   : No
    Color range                              : Limited
    Color primaries                          : BT.709
    Transfer characteristics                 : BT.709
    Matrix coefficients                      : BT.709

    Audio #1
    ID                                       : 2
    Format                                   : DTS
    Format/Info                              : Digital Theater Systems
    Mode                                     : 16
    Format settings, Endianness              : Big
    Codec ID                                 : A_DTS
    Duration                                 : 1 h 46 min
    Bit rate mode                            : Constant
    Bit rate                                 : 768 kb/s
    Channel(s)                               : 6 channels
    Channel positions                        : Front: L C R, Side: L R, LFE
    Sampling rate                            : 48.0 kHz
    Frame rate                               : 93.750 FPS (512 SPF)
    Bit depth                                : 24 bits
    Compression mode                         : Lossy
    Delay relative to video                  : 3 ms
    Stream size                              : 587 MiB (5%)
    Language                                 : Spanish
    Default                                  : Yes
    Forced                                   : No

    Audio #2
    ID                                       : 3
    Format                                   : DTS
    Format/Info                              : Digital Theater Systems
    Mode                                     : 16
    Format settings, Endianness              : Big
    Codec ID                                 : A_DTS
    Duration                                 : 1 h 46 min
    Bit rate mode                            : Constant
    Bit rate                                 : 1 509 kb/s
    Channel(s)                               : 6 channels
    Channel positions                        : Front: L C R, Side: L R, LFE
    Sampling rate                            : 48.0 kHz
    Frame rate                               : 93.750 FPS (512 SPF)
    Bit depth                                : 24 bits
    Compression mode                         : Lossy
    Delay relative to video                  : 6 ms
    Stream size                              : 1.13 GiB (11%)
    Language                                 : English
    Default                                  : No
    Forced                                   : No

    Text #1
    ID                                       : 4
    Format                                   : UTF-8
    Codec ID                                 : S_TEXT/UTF8
    Codec ID/Info                            : UTF-8 Plain Text
    Duration                                 : 1 h 26 min
    Bit rate                                 : 0 b/s
    Count of elements                        : 11
    Stream size                              : 386 Bytes (0%)
    Language                                 : Spanish
    Default                                  : Yes
    Forced                                   : Yes

    Text #2
    ID                                       : 5
    Format                                   : UTF-8
    Codec ID                                 : S_TEXT/UTF8
    Codec ID/Info                            : UTF-8 Plain Text
    Duration                                 : 1 h 40 min
    Bit rate                                 : 30 b/s
    Count of elements                        : 759
    Stream size                              : 22.6 KiB (0%)
    Language                                 : Spanish
    Default                                  : No
    Forced                                   : No

  • Peso: 10.7 GiB

Sinopsis

El fugitivo y ex preso Dom Toretto y el detective Brian O’Conner vuelven a encontrarse en Los Ángeles y siguen llevándose igual de mal. Sin embargo, obligados a enfrentarse a un enemigo común, no les queda más remedio que unir sus fuerzas si quieren vencerle. Después del atraco a un convoy, los dos protagonistas descubrirán que si quieren vengarse, deberán llegar al límite de sus posibilidades al volante… Nueva entrega de la serie que volvió a contar con su -ahora ya famosos- 4 protagonistas originales, circustancia que resaltan en su original leyenda: “Nuevo modelo. Piezas originales”.

Ficha técnica

Video trailer de la película

Enlaces de descarga

Rip de Bluray

Descargar Fast & Furious: Aún más rápido (2009) [Open Matte] WEB-DL 1080p Latino




Aportes de DPeliculasHDmega la pass es:dpeliculashdmega.org Aportes de CinemaniaHD la pass es:cinemaniahdd.com
Guardado en : Acción , Crimen , Drama , Suspense

Películas relacionadas

Comentarios 4
  • Tio Higuera - 13 febrero, 2018

    Gracias. esperaré las otras en este formato. saludos.

  • Ivan - 28 enero, 2018

    Hola tengo una pregunta, que quiere decir “Open matte”

    • Dracarys - 28 enero, 2018

      Que es una versión Sin las franjas Negras! Así tipo IMAX pero en este caso toda la película es full pantalla

      • MIGUEL ANGEL - 28 enero, 2018

        Ok mil gracias por todo su trabajo….son lo máximo…