Fahrenheit 451 (2018) Full 1080p Latino

1.168 vistas
1 estrella2 estrellas3 estrellas4 estrellas5 estrellas (4 votos, promedio: 3,00 de 5)
Cargando…

Información de Fahrenheit 451 (2018) Full 1080p Latino

Datos de la película

  • Calidad: Full 1080p
  • Audio: Español Latino DTS 2.0 BLURAY - Ingles DTS 5.1 BLURAY
  • Subtitulos: Español Latino PGS - Ingles PGS
  • Resolución: 1920x1080p
  • Formato: MKV
  • Codec: H.264
  • Encoder: dracarys
  • Mediainfo: Clic para Mostrar Datos Ver
  • Format                                   : Matroska
    Format version                           : Version 4 / Version 2
    File size                                : 4.56 GiB
    Duration                                 : 1 h 40 min
    Overall bit rate                         : 6 511 kb/s
    Movie name                               : CinemaniaHDD.net
    Encoded date                             : UTC 2018-09-23 01:58:18 / UTC 2018-09-19T22:22:12Z
    Writing application                      : mkvmerge v15.0.0 ('Duel with the Devil') 64-bit
    Writing library                          : libebml v1.3.5 + libmatroska v1.4.5 / Lavf57.7.2

    Video
    ID                                       : 1
    Format                                   : AVC
    Format/Info                              : Advanced Video Codec
    Format profile                           : High@L4.1
    Format settings                          : CABAC / 4 Ref Frames
    Format settings, CABAC                   : Yes
    Format settings, RefFrames               : 4 frames
    Codec ID                                 : V_MPEG4/ISO/AVC
    Duration                                 : 1 h 40 min
    Bit rate                                 : 4 105 kb/s
    Width                                    : 1 920 pixels
    Height                                   : 1 080 pixels
    Display aspect ratio                     : 16:9
    Frame rate mode                          : Constant
    Frame rate                               : 23.976 (24000/1001) FPS
    Color space                              : YUV
    Chroma subsampling                       : 4:2:0
    Bit depth                                : 8 bits
    Scan type                                : Progressive
    Bits/(Pixel*Frame)                       : 0.083
    Stream size                              : 2.88 GiB (63%)
    Writing library                          : x264 core 148 r2708 86b7198
    Encoding settings                        : cabac=1 / ref=4 / deblock=1:0:0 / analyse=0x3:0x133 / me=esa / subme=10 / psy=1 / psy_rd=1.00:0.00 / mixed_ref=1 / me_range=24 / chroma_me=1 / trellis=2 / 8x8dct=1 / cqm=0 / deadzone=21,11 / fast_pskip=1 / chroma_qp_offset=-2 / threads=34 / lookahead_threads=5 / sliced_threads=0 / nr=0 / decimate=1 / interlaced=0 / bluray_compat=0 / constrained_intra=0 / bframes=8 / b_pyramid=2 / b_adapt=2 / b_bias=0 / direct=3 / weightb=1 / open_gop=0 / weightp=2 / keyint=240 / keyint_min=24 / scenecut=40 / intra_refresh=0 / rc_lookahead=60 / rc=crf / mbtree=1 / crf=20.0 / qcomp=0.60 / qpmin=0 / qpmax=69 / qpstep=4 / vbv_maxrate=62500 / vbv_bufsize=78125 / crf_max=0.0 / nal_hrd=none / filler=0 / ip_ratio=1.40 / aq=1:1.00
    Language                                 : English
    Default                                  : Yes
    Forced                                   : No
    Color range                              : Limited
    Color primaries                          : BT.709
    Transfer characteristics                 : BT.709
    Matrix coefficients                      : BT.709
    Statistics Tags Issue                    : mkvmerge v15.0.0 ('Duel with the Devil') 64-bit 2018-09-23 01:58:18 / mkvmerge v15.0.0 ('Duel with the Devil') 64-bit 2018-09-23 01:58:18 / UTC 2018-09-19T22:22:12Z
    FromStats_BitRate                        : 4212014
    FromStats_Duration                       : 01:40:20.515000000
    FromStats_FrameCount                     : 144348
    FromStats_StreamSize                     : 3169811868

    Audio #1
    ID                                       : 2
    Format                                   : DTS
    Format/Info                              : Digital Theater Systems
    Mode                                     : 16
    Format settings, Endianness              : Big
    Codec ID                                 : A_DTS
    Duration                                 : 1 h 40 min
    Bit rate mode                            : Constant
    Bit rate                                 : 768 kb/s
    Channel(s)                               : 2 channels
    Channel positions                        : Front: L R
    Sampling rate                            : 48.0 kHz
    Frame rate                               : 93.750 FPS (512 SPF)
    Bit depth                                : 24 bits
    Compression mode                         : Lossy
    Stream size                              : 551 MiB (12%)
    Language                                 : Spanish
    Default                                  : Yes
    Forced                                   : No
    Statistics Tags Issue                    : mkvmerge v15.0.0 ('Duel with the Devil') 64-bit 2018-09-23 01:58:18 / mkvmerge v15.0.0 ('Duel with the Devil') 64-bit 2018-09-23 01:58:18 / UTC 2018-09-19T22:22:12Z
    FromStats_BitRate                        : 768000
    FromStats_Duration                       : 01:40:20.512000000
    FromStats_FrameCount                     : 564423
    FromStats_StreamSize                     : 577969152

    Audio #2
    ID                                       : 3
    Format                                   : DTS
    Format/Info                              : Digital Theater Systems
    Mode                                     : 16
    Format settings, Endianness              : Big
    Codec ID                                 : A_DTS
    Duration                                 : 1 h 40 min
    Bit rate mode                            : Constant
    Bit rate                                 : 1 509 kb/s
    Channel(s)                               : 6 channels
    Channel positions                        : Front: L C R, Side: L R, LFE
    Sampling rate                            : 48.0 kHz
    Frame rate                               : 93.750 FPS (512 SPF)
    Bit depth                                : 24 bits
    Compression mode                         : Lossy
    Stream size                              : 1.06 GiB (23%)
    Language                                 : English
    Default                                  : No
    Forced                                   : No
    Statistics Tags Issue                    : mkvmerge v15.0.0 ('Duel with the Devil') 64-bit 2018-09-23 01:58:18 / mkvmerge v15.0.0 ('Duel with the Devil') 64-bit 2018-09-23 01:58:18 / UTC 2018-09-19T22:22:12Z
    FromStats_BitRate                        : 1509000
    FromStats_Duration                       : 01:40:20.512000000
    FromStats_FrameCount                     : 564423
    FromStats_StreamSize                     : 1135619076

    Text #1
    ID                                       : 4
    Format                                   : PGS
    Muxing mode                              : zlib
    Codec ID                                 : S_HDMV/PGS
    Codec ID/Info                            : Picture based subtitle format used on BDs/HD-DVDs
    Language                                 : English
    Default                                  : No
    Forced                                   : No
    Statistics Tags Issue                    : mkvmerge v15.0.0 ('Duel with the Devil') 64-bit 2018-09-23 01:58:18 / mkvmerge v15.0.0 ('Duel with the Devil') 64-bit 2018-09-23 01:58:18 / UTC 2018-09-19T22:22:12Z
    FromStats_BitRate                        : 33124
    FromStats_Duration                       : 01:33:57.716000000
    FromStats_FrameCount                     : 2096
    FromStats_StreamSize                     : 23343002

    Text #2
    ID                                       : 5
    Format                                   : PGS
    Muxing mode                              : zlib
    Codec ID                                 : S_HDMV/PGS
    Codec ID/Info                            : Picture based subtitle format used on BDs/HD-DVDs
    Language                                 : Spanish
    Default                                  : No
    Forced                                   : No
    Statistics Tags Issue                    : mkvmerge v15.0.0 ('Duel with the Devil') 64-bit 2018-09-23 01:58:18 / mkvmerge v15.0.0 ('Duel with the Devil') 64-bit 2018-09-23 01:58:18 / UTC 2018-09-19T22:22:12Z
    FromStats_BitRate                        : 32290
    FromStats_Duration                       : 01:34:56.816000000
    FromStats_FrameCount                     : 2184
    FromStats_StreamSize                     : 22993956

    Menu
    00:00:00.000                             : :Chapter 1
    00:02:32.152                             : :Chapter 2
    00:11:46.664                             : :Chapter 3
    00:20:31.856                             : :Chapter 4
    00:26:28.504                             : :Chapter 5
    00:35:54.152                             : :Chapter 6
    00:44:01.806                             : :Chapter 7
    00:52:45.204                             : :Chapter 8
    01:01:59.507                             : :Chapter 9
    01:08:23.266                             : :Chapter 10
    01:17:46.996                             : :Chapter 11
    01:27:06.054                             : :Chapter 12
    01:37:54.369                             : :Chapter 13

  • Peso: 4.56 GiB

Sinopsis

Michael B. Jordan y Michael Shannon protagonizan esta adaptación de HBO de la clásica novela distópica de Ray Bradbury, desarrollada en un futuro aterradoramente verosímil donde los libros se queman, la historia se borra y la disconformidad es ilegal.

Ficha técnica

Video trailer de la película

Enlaces de descarga

Rip de Bluray

Descargar Fahrenheit 451 (2018) Full 1080p Latino




Aportes de DPeliculasHDmega la pass es:dpeliculashdmega.org Aportes de CinemaniaHD la pass es:cinemaniahdd.com

Películas relacionadas

  • The Night Comes For Us (2018) NF 1080p Latino

    2018
    The Night Comes For Us (2018) NF 1080p Latino

    1.0 2h 1m 2018

    The Night Comes For Us (2018) NF 1080p Latino; Mega, Google Drive. Un antiguo sicario debe proteger a...

    Director: Timo Tjahjanto

    Género: Acción

    Actores: Zack Lee

  • Illang: La brigada del lobo (2018) NF 1080p Latino

    2018
    Illang: La brigada del lobo (2018) NF 1080p Latino

    1.0 2h 19m 2018

    Descargar Illang: La brigada del lobo (2018) NF 1080p Latino; Mega, Google Drive. Basada en el anime...

    Director: Kim Jee-woon

    Género: Acción

    Actores: Shin Eun-soo

  • The Padre (2018) WEB-DL 1080p Latino

    2018
    The Padre (2018) WEB-DL 1080p Latino

    3.0 1h 38m 2018

    Descargar The Padre (2018) WEB-DL 1080p Latino; Mega, Google Drive. El juez estadounidense retirado Randall...

    Director: Jonathan Sobol

    Género: Drama

    Actores: Tim Roth

  • Mentes poderosas (2018) 1080p Latino

    2018
    Mentes poderosas (2018) 1080p Latino

    1.0 1h 45m 2018

    Descargar Mentes poderosas (2018) 1080p Latino; Mega, Google Drive. Encarcelados en un mundo adulto...

    Director: Jennifer Yuh Nelson

    Género: Ciencia ficción

    Actores: William Walker

  • Paciente Cero (2018) Full 1080p Latino

    2018
    Paciente Cero (2018) Full 1080p Latino

    3.7 1h 26m 2018

    Paciente Cero (2018) Full 1080p Latino; Mega, Google Drive. Tras una pandemia sin precedentes, la Humanidad...

    Director: Stefan Ruzowitzky

    Género: Acción

    Actores: Yumiko Hanasaka

Comentarios 0