Expediente Warren: El caso Enfield (2016) Full 1080p Latino

2.508 vistas
1 estrella2 estrellas3 estrellas4 estrellas5 estrellas (Ninguna valoración todavía)
Cargando…

Información de Expediente Warren: El caso Enfield (2016) Full 1080p Latino

Datos de la película

  • Calidad: Full 1080p
  • Audio: Español Latino AC3 5.1 BLURAY - Ingles AC3 5.1 BLURAY
  • Subtitulos: Español Latino PGS - Ingles PGS
  • Resolución: 1920X1080
  • Formato: MKV
  • Codec: H.264
  • Encoder: Dpelis
  • Mediainfo: Clic para Mostrar Datos Ver
  • Format                                   : Matroska
    Format version                           : Version 4 / Version 2
    File size                                : 5.33 GiB
    Duration                                 : 2 h 13 min
    Overall bit rate                         : 5 699 kb/s
    Movie name                               : dpeliculashdmega.org
    Encoded date                             : UTC 2017-11-26 03:03:05 / UTC 2017-11-25T13:12:17Z
    Writing application                      : mkvmerge v15.0.0 ('Duel with the Devil') 64-bit
    Writing library                          : libebml v1.3.5 + libmatroska v1.4.5 / Lavf57.7.2

    Video
    ID                                       : 1
    Format                                   : AVC
    Format/Info                              : Advanced Video Codec
    Format profile                           : High@L4.1
    Format settings                          : CABAC / 4 Ref Frames
    Format settings, CABAC                   : Yes
    Format settings, RefFrames               : 4 frames
    Codec ID                                 : V_MPEG4/ISO/AVC
    Duration                                 : 2 h 13 min
    Bit rate                                 : 4 497 kb/s
    Width                                    : 1 920 pixels
    Height                                   : 1 080 pixels
    Display aspect ratio                     : 16:9
    Frame rate mode                          : Constant
    Frame rate                               : 23.976 (24000/1001) FPS
    Color space                              : YUV
    Chroma subsampling                       : 4:2:0
    Bit depth                                : 8 bits
    Scan type                                : Progressive
    Bits/(Pixel*Frame)                       : 0.090
    Stream size                              : 4.21 GiB (79%)
    Title                                    : Expediente Warren El caso Enfield (2016) Full 1080p Latino
    Writing library                          : x264 core 148 r2708 86b7198
    Encoding settings                        : cabac=1 / ref=4 / deblock=1:0:0 / analyse=0x3:0x133 / me=esa / subme=10 / psy=1 / psy_rd=1.00:0.00 / mixed_ref=1 / me_range=24 / chroma_me=1 / trellis=2 / 8x8dct=1 / cqm=0 / deadzone=21,11 / fast_pskip=1 / chroma_qp_offset=-2 / threads=34 / lookahead_threads=5 / sliced_threads=0 / nr=0 / decimate=1 / interlaced=0 / bluray_compat=0 / constrained_intra=0 / bframes=8 / b_pyramid=2 / b_adapt=2 / b_bias=0 / direct=3 / weightb=1 / open_gop=0 / weightp=2 / keyint=240 / keyint_min=24 / scenecut=40 / intra_refresh=0 / rc_lookahead=60 / rc=crf / mbtree=1 / crf=20.0 / qcomp=0.60 / qpmin=0 / qpmax=69 / qpstep=4 / vbv_maxrate=62500 / vbv_bufsize=78125 / crf_max=0.0 / nal_hrd=none / filler=0 / ip_ratio=1.40 / aq=1:1.00
    Language                                 : English
    Default                                  : Yes
    Forced                                   : No
    Color range                              : Limited
    Color primaries                          : BT.709
    Transfer characteristics                 : BT.709
    Matrix coefficients                      : BT.709
    Statistics Tags Issue                    : mkvmerge v15.0.0 ('Duel with the Devil') 64-bit 2017-11-26 03:03:05 / mkvmerge v15.0.0 ('Duel with the Devil') 64-bit 2017-11-26 03:03:05 / UTC 2017-11-25T13:12:17Z
    FromStats_BitRate                        : 4590491
    FromStats_Duration                       : 02:13:52.733000000
    FromStats_FrameCount                     : 192593
    FromStats_StreamSize                     : 4609274040

    Audio #1
    ID                                       : 2
    Format                                   : AC-3
    Format/Info                              : Audio Coding 3
    Format settings, Endianness              : Big
    Codec ID                                 : A_AC3
    Duration                                 : 2 h 13 min
    Bit rate mode                            : Constant
    Bit rate                                 : 448 kb/s
    Channel(s)                               : 6 channels
    Channel positions                        : Front: L C R, Side: L R, LFE
    Sampling rate                            : 48.0 kHz
    Frame rate                               : 31.250 FPS (1536 SPF)
    Bit depth                                : 16 bits
    Compression mode                         : Lossy
    Stream size                              : 429 MiB (8%)
    Title                                    : Latino-AC3
    Language                                 : Spanish
    Service kind                             : Complete Main
    Default                                  : Yes
    Forced                                   : No
    Statistics Tags Issue                    : mkvmerge v15.0.0 ('Duel with the Devil') 64-bit 2017-11-26 03:03:05 / mkvmerge v15.0.0 ('Duel with the Devil') 64-bit 2017-11-26 03:03:05 / UTC 2017-11-25T13:12:17Z
    FromStats_BitRate                        : 448000
    FromStats_Duration                       : 02:13:52.736000000
    FromStats_FrameCount                     : 251023
    FromStats_StreamSize                     : 449833216

    Audio #2
    ID                                       : 3
    Format                                   : AC-3
    Format/Info                              : Audio Coding 3
    Format settings, Endianness              : Big
    Codec ID                                 : A_AC3
    Duration                                 : 2 h 13 min
    Bit rate mode                            : Constant
    Bit rate                                 : 640 kb/s
    Channel(s)                               : 6 channels
    Channel positions                        : Front: L C R, Side: L R, LFE
    Sampling rate                            : 48.0 kHz
    Frame rate                               : 31.250 FPS (1536 SPF)
    Bit depth                                : 16 bits
    Compression mode                         : Lossy
    Stream size                              : 613 MiB (11%)
    Title                                    : Ingles-AC3
    Language                                 : English
    Service kind                             : Complete Main
    Default                                  : No
    Forced                                   : No
    Statistics Tags Issue                    : mkvmerge v15.0.0 ('Duel with the Devil') 64-bit 2017-11-26 03:03:05 / mkvmerge v15.0.0 ('Duel with the Devil') 64-bit 2017-11-26 03:03:05 / UTC 2017-11-25T13:12:17Z
    FromStats_BitRate                        : 640000
    FromStats_Duration                       : 02:13:52.768000000
    FromStats_FrameCount                     : 251024
    FromStats_StreamSize                     : 642621440

    Text #1
    ID                                       : 4
    Format                                   : PGS
    Muxing mode                              : zlib
    Codec ID                                 : S_HDMV/PGS
    Codec ID/Info                            : Picture based subtitle format used on BDs/HD-DVDs
    Language                                 : English
    Default                                  : No
    Forced                                   : No
    Statistics Tags Issue                    : mkvmerge v15.0.0 ('Duel with the Devil') 64-bit 2017-11-26 03:03:05 / mkvmerge v15.0.0 ('Duel with the Devil') 64-bit 2017-11-26 03:03:05 / UTC 2017-11-25T13:12:17Z
    FromStats_BitRate                        : 31660
    FromStats_Duration                       : 02:13:11.859000000
    FromStats_FrameCount                     : 3484
    FromStats_StreamSize                     : 31628596

    Text #2
    ID                                       : 5
    Format                                   : PGS
    Muxing mode                              : zlib
    Codec ID                                 : S_HDMV/PGS
    Codec ID/Info                            : Picture based subtitle format used on BDs/HD-DVDs
    Language                                 : Spanish
    Default                                  : No
    Forced                                   : No
    Statistics Tags Issue                    : mkvmerge v15.0.0 ('Duel with the Devil') 64-bit 2017-11-26 03:03:05 / mkvmerge v15.0.0 ('Duel with the Devil') 64-bit 2017-11-26 03:03:05 / UTC 2017-11-25T13:12:17Z
    FromStats_BitRate                        : 24854
    FromStats_Duration                       : 02:13:07.187000000
    FromStats_FrameCount                     : 2816
    FromStats_StreamSize                     : 24814544

    Menu
    00:00:00.000                             : :Chapter 1
    00:08:24.671                             : :Chapter 2
    00:18:40.703                             : :Chapter 3
    00:28:34.213                             : :Chapter 4
    00:40:01.399                             : :Chapter 5
    00:48:46.841                             : :Chapter 6
    01:02:14.314                             : :Chapter 7
    01:09:29.666                             : :Chapter 8
    01:21:55.869                             : :Chapter 9
    01:29:26.486                             : :Chapter 10
    01:38:53.469                             : :Chapter 11
    01:48:15.364                             : :Chapter 12
    02:03:10.508                             : :Chapter 13
    02:07:36.816                             : :Chapter 14

     

  • Peso: 5.33 GiB

Sinopsis

Secuela de la exitosa “Expediente Warren” (2013), que lleva de nuevo a la pantalla otro caso real de los expedientes de los renombrados demonólogos Ed y Lorraine Warren. En este caso ambos viajarán al norte de Londres para ayudar a una madre soltera que tiene a su cargo cuatro hijos y que vive sola con ellos en una casa plagada de espíritus malignos.

Ficha técnica

Video trailer de la película

Enlaces de descarga

Rip de Bluray

Descargar Expediente Warren: El caso Enfield (2016) Full 1080p Latino




Aportes de DPeliculasHDmega la pass es:dpeliculashdmega.org Aportes de CinemaniaHD la pass es:cinemaniahdd.com
Guardado en : FULL 1080p Plateadas , Sagas , Terror

Películas relacionadas

  • Sicario (2015) Full 1080p Latino

    2015
    Sicario (2015) Full 1080p Latino

    5.0 2h 1m 2015

    En la zona fronteriza que se extiende entre Estados Unidos y México la joven Kate Macer, una idealista...

    Director: Judi Townsend

    Género: Acción

    Actores: Victor Garber

  • Fahrenheit 451 (2018) Full 1080p Latino

    2018
    Fahrenheit 451 (2018) Full 1080p Latino

    5.0 1h 36m 2018

    Michael B. Jordan y Michael Shannon protagonizan esta adaptación de HBO de la clásica novela distópica...

    Director: Ramin Bahrani

    Género: Ciencia ficción

    Actores: Tim Post

  • Atlantis el imperio perdido (2001) Full 1080p Latino

    2001
    Atlantis el imperio perdido (2001) Full 1080p Latino

    5.0 1h 35m 2001

    Un joven aventurero llamado Milo encuentra un antiguo diario que contiene pistas de cómo llegar a Atlantis,...

    Director: Lam Hoang

    Género: Animación

    Actores: Phil Morris

Comentarios 0