¡Esto es guerra! (2012) [UNRATED] Full 1080p Latino

976 vistas
1 estrella2 estrellas3 estrellas4 estrellas5 estrellas (3 votos, promedio: 5,00 de 5)
Cargando…

Información de ¡Esto es guerra! (2012) [UNRATED] Full 1080p Latino

Datos de la película

  • Calidad: Full 1080p
  • Audio: Español Latino AC3 5.1 BLURAY - Ingles DTS 5.1 BLURAY
  • Subtitulos: Español Latino SRT- FORZADOS SRT
  • Resolución: 1920x1080p
  • Formato: MKV
  • Codec: H.264
  • Encoder: Dracarys
  • Mediainfo: Clic para Mostrar Datos Ver
  • Format                                   : Matroska
    Format version                           : Version 4 / Version 2
    File size                                : 9.83 GiB
    Duration                                 : 1 h 44 min
    Overall bit rate                         : 13.5 Mb/s
    Movie name                               : CinemaniaHDD.net
    Encoded date                             : UTC 2018-09-10 00:41:37 / UTC 2018-08-19T09:09:18Z
    Writing application                      : mkvmerge v15.0.0 ('Duel with the Devil') 64-bit
    Writing library                          : libebml v1.3.5 + libmatroska v1.4.5 / Lavf57.7.2

    Video
    ID                                       : 1
    Format                                   : AVC
    Format/Info                              : Advanced Video Codec
    Format profile                           : High@L4.1
    Format settings                          : CABAC / 4 Ref Frames
    Format settings, CABAC                   : Yes
    Format settings, RefFrames               : 4 frames
    Codec ID                                 : V_MPEG4/ISO/AVC
    Duration                                 : 1 h 44 min
    Bit rate                                 : 11.3 Mb/s
    Width                                    : 1 920 pixels
    Height                                   : 1 080 pixels
    Display aspect ratio                     : 16:9
    Frame rate mode                          : Constant
    Frame rate                               : 23.976 (24000/1001) FPS
    Color space                              : YUV
    Chroma subsampling                       : 4:2:0
    Bit depth                                : 8 bits
    Scan type                                : Progressive
    Bits/(Pixel*Frame)                       : 0.227
    Stream size                              : 8.21 GiB (84%)
    Title                                    : ¡Esto es guerra! (2012) [UNRATED] Full 1080p Latino
    Writing library                          : x264 core 148 r2708 86b7198
    Encoding settings                        : cabac=1 / ref=4 / deblock=1:0:0 / analyse=0x3:0x133 / me=esa / subme=10 / psy=1 / psy_rd=1.00:0.00 / mixed_ref=1 / me_range=24 / chroma_me=1 / trellis=2 / 8x8dct=1 / cqm=0 / deadzone=21,11 / fast_pskip=1 / chroma_qp_offset=-2 / threads=34 / lookahead_threads=5 / sliced_threads=0 / nr=0 / decimate=1 / interlaced=0 / bluray_compat=0 / constrained_intra=0 / bframes=8 / b_pyramid=2 / b_adapt=2 / b_bias=0 / direct=3 / weightb=1 / open_gop=0 / weightp=2 / keyint=240 / keyint_min=24 / scenecut=40 / intra_refresh=0 / rc_lookahead=60 / rc=crf / mbtree=1 / crf=20.0 / qcomp=0.60 / qpmin=0 / qpmax=69 / qpstep=4 / vbv_maxrate=62500 / vbv_bufsize=78125 / crf_max=0.0 / nal_hrd=none / filler=0 / ip_ratio=1.40 / aq=1:1.00
    Language                                 : English
    Default                                  : Yes
    Forced                                   : No
    Color range                              : Limited
    Color primaries                          : BT.709
    Transfer characteristics                 : BT.709
    Matrix coefficients                      : BT.709
    Statistics Tags Issue                    : mkvmerge v15.0.0 ('Duel with the Devil') 64-bit 2018-09-10 00:41:37 / mkvmerge v15.0.0 ('Duel with the Devil') 64-bit 2018-09-10 00:41:37 / UTC 2018-08-19T09:09:18Z
    FromStats_BitRate                        : 11574286
    FromStats_Duration                       : 01:44:00.193000000
    FromStats_FrameCount                     : 149615
    FromStats_StreamSize                     : 9028222974

    Audio #1
    ID                                       : 2
    Format                                   : AC-3
    Format/Info                              : Audio Coding 3
    Format settings, Endianness              : Big
    Codec ID                                 : A_AC3
    Duration                                 : 1 h 44 min
    Bit rate mode                            : Constant
    Bit rate                                 : 448 kb/s
    Channel(s)                               : 6 channels
    Channel positions                        : Front: L C R, Side: L R, LFE
    Sampling rate                            : 48.0 kHz
    Frame rate                               : 31.250 FPS (1536 SPF)
    Bit depth                                : 16 bits
    Compression mode                         : Lossy
    Stream size                              : 333 MiB (3%)
    Language                                 : Spanish
    Service kind                             : Complete Main
    Default                                  : Yes
    Forced                                   : No
    Statistics Tags Issue                    : mkvmerge v15.0.0 ('Duel with the Devil') 64-bit 2018-09-10 00:41:37 / mkvmerge v15.0.0 ('Duel with the Devil') 64-bit 2018-09-10 00:41:37 / UTC 2018-08-19T09:09:18Z
    FromStats_BitRate                        : 448000
    FromStats_Duration                       : 01:44:00.288000000
    FromStats_FrameCount                     : 195009
    FromStats_StreamSize                     : 349456128

    Audio #2
    ID                                       : 3
    Format                                   : DTS
    Format/Info                              : Digital Theater Systems
    Mode                                     : 16
    Format settings, Endianness              : Big
    Codec ID                                 : A_DTS
    Duration                                 : 1 h 44 min
    Bit rate mode                            : Constant
    Bit rate                                 : 1 509 kb/s
    Channel(s)                               : 6 channels
    Channel positions                        : Front: L C R, Side: L R, LFE
    Sampling rate                            : 48.0 kHz
    Frame rate                               : 93.750 FPS (512 SPF)
    Bit depth                                : 24 bits
    Compression mode                         : Lossy
    Stream size                              : 1.10 GiB (11%)
    Language                                 : English
    Default                                  : No
    Forced                                   : No
    Statistics Tags Issue                    : mkvmerge v15.0.0 ('Duel with the Devil') 64-bit 2018-09-10 00:41:37 / mkvmerge v15.0.0 ('Duel with the Devil') 64-bit 2018-09-10 00:41:37 / UTC 2018-08-19T09:09:18Z
    FromStats_BitRate                        : 1508999
    FromStats_Duration                       : 01:44:00.246000000
    FromStats_FrameCount                     : 585023
    FromStats_StreamSize                     : 1177066276

    Text #1
    ID                                       : 4
    Format                                   : UTF-8
    Codec ID                                 : S_TEXT/UTF8
    Codec ID/Info                            : UTF-8 Plain Text
    Title                                    : Forzados
    Language                                 : Spanish
    Default                                  : Yes
    Forced                                   : Yes
    Statistics Tags Issue                    : mkvmerge v15.0.0 ('Duel with the Devil') 64-bit 2018-09-10 00:41:37 / mkvmerge v15.0.0 ('Duel with the Devil') 64-bit 2018-09-10 00:41:37 / UTC 2018-08-19T09:09:18Z
    FromStats_BitRate                        : 0
    FromStats_Duration                       : 01:27:10.308000000
    FromStats_FrameCount                     : 9
    FromStats_StreamSize                     : 180

    Text #2
    ID                                       : 5
    Format                                   : UTF-8
    Codec ID                                 : S_TEXT/UTF8
    Codec ID/Info                            : UTF-8 Plain Text
    Language                                 : Spanish
    Default                                  : No
    Forced                                   : No
    Statistics Tags Issue                    : mkvmerge v15.0.0 ('Duel with the Devil') 64-bit 2018-09-10 00:41:37 / mkvmerge v15.0.0 ('Duel with the Devil') 64-bit 2018-09-10 00:41:37 / UTC 2018-08-19T09:09:18Z
    FromStats_BitRate                        : 71
    FromStats_Duration                       : 01:38:04.435000000
    FromStats_FrameCount                     : 1574
    FromStats_StreamSize                     : 52611

    Menu
    00:00:00.000                             : :Chapter 1
    00:06:05.490                             : :Chapter 2
    00:11:14.257                             : :Chapter 3
    00:15:22.463                             : :Chapter 4
    00:18:36.282                             : :Chapter 5
    00:22:50.786                             : :Chapter 6
    00:24:51.365                             : :Chapter 7
    00:28:22.367                             : :Chapter 8
    00:32:03.713                             : :Chapter 9
    00:37:39.466                             : :Chapter 10
    00:42:10.486                             : :Chapter 11
    00:45:56.254                             : :Chapter 12
    00:48:48.676                             : :Chapter 13
    00:52:16.133                             : :Chapter 14
    00:57:02.878                             : :Chapter 15
    01:03:23.258                             : :Chapter 16
    01:08:42.035                             : :Chapter 17
    01:16:30.586                             : :Chapter 18
    01:19:46.490                             : :Chapter 19
    01:23:12.362                             : :Chapter 20
    01:28:22.589                             : :Chapter 21
    01:33:12.170                             : :Chapter 22
    01:37:07.071                             : :Chapter 23
    01:38:50.049                             : :Chapter 24

  • Peso: 9.83 GiB

Sinopsis

Dos agentes de la CIA, grandes amigos desde la infancia, se enamoran de la misma mujer. Su amistad desaparece y se enzarzan en una batalla de proporciones épicas que pondrá en jaque a la ciudad de Nueva York.

Ficha técnica

Video trailer de la película

Enlaces de descarga

Rip de Bluray

Descargar ¡Esto es guerra! (2012) [UNRATED] Full 1080p Latino




Aportes de DPeliculasHDmega la pass es:dpeliculashdmega.org Aportes de CinemaniaHD la pass es:cinemaniahdd.com

Películas relacionadas

  • Hotel Transylvania 3 (2018) WEBDL 1080p Latino

    2018
    Hotel Transylvania 3 (2018) WEBDL 1080p Latino

    0.0 1h 30m 2018

    Nuestra familia de monstruos favorita se embarca en un crucero de lujo para que por fin Drac pueda tomarse...

    Director: Genndy Tartakovsky

    Género: Animación

    Actores: Tara Strong

  • Love on the Sidelines (2016) WEBDL 1080p Latino

    2016
    Love on the Sidelines (2016) WEBDL 1080p Latino

    0.0 1h 24m 2016

    Una joven sin buena suerte que cae en un trabajo como asistente personal de un mariscal de campo estrellado...

    Director: Terry Ingram

    Género: Comedia

    Actores: Victor Zinck Jr.

Comentarios 0