Escalofrío en la noche (1971) Full 1080p Latino

678 vistas
1 estrella2 estrellas3 estrellas4 estrellas5 estrellas (Ninguna valoración todavía)
Cargando…

Información de Escalofrío en la noche (1971) Full 1080p Latino

Datos de la película

  • Calidad: Full 1080p
  • Audio: Español Latino AC3 2.0 BLURAY - Ingles DTS 5.1 BLURAY
  • Subtitulos: Español Latino PGS - Ingles PGS
  • Resolución: 1920x1080p
  • Formato: MKV
  • Codec: H.264
  • Encoder: Dracarys
  • Mediainfo: Clic para Mostrar Datos Ver
  • Format                                   : Matroska
    Format version                           : Version 4 / Version 2
    File size                                : 10.0 GiB
    Duration                                 : 1 h 42 min
    Overall bit rate                         : 14.1 Mb/s
    Movie name                               : CinemaniaHDD.com
    Encoded date                             : UTC 2018-03-31 00:15:33 / UTC 2018-03-30T17:58:23Z
    Writing application                      : mkvmerge v15.0.0 ('Duel with the Devil') 64-bit
    Writing library                          : libebml v1.3.5 + libmatroska v1.4.5 / Lavf57.7.2

    Video
    ID                                       : 1
    Format                                   : AVC
    Format/Info                              : Advanced Video Codec
    Format profile                           : High@L4.1
    Format settings                          : CABAC / 4 Ref Frames
    Format settings, CABAC                   : Yes
    Format settings, RefFrames               : 4 frames
    Codec ID                                 : V_MPEG4/ISO/AVC
    Duration                                 : 1 h 42 min
    Bit rate                                 : 11.5 Mb/s
    Width                                    : 1 920 pixels
    Height                                   : 1 080 pixels
    Display aspect ratio                     : 16:9
    Frame rate mode                          : Constant
    Frame rate                               : 23.976 (24000/1001) FPS
    Color space                              : YUV
    Chroma subsampling                       : 4:2:0
    Bit depth                                : 8 bits
    Scan type                                : Progressive
    Bits/(Pixel*Frame)                       : 0.232
    Stream size                              : 8.22 GiB (82%)
    Title                                    : Escalofrío en la noche (1971) Full 1080p Latino
    Writing library                          : x264 core 148 r2708 86b7198
    Encoding settings                        : cabac=1 / ref=4 / deblock=1:0:0 / analyse=0x3:0x133 / me=esa / subme=9 / psy=1 / psy_rd=1.00:0.00 / mixed_ref=1 / me_range=16 / chroma_me=1 / trellis=2 / 8x8dct=1 / cqm=0 / deadzone=21,11 / fast_pskip=1 / chroma_qp_offset=-2 / threads=34 / lookahead_threads=2 / sliced_threads=0 / nr=0 / decimate=1 / interlaced=0 / bluray_compat=0 / constrained_intra=0 / bframes=3 / b_pyramid=2 / b_adapt=2 / b_bias=0 / direct=3 / weightb=1 / open_gop=0 / weightp=2 / keyint=240 / keyint_min=24 / scenecut=40 / intra_refresh=0 / rc_lookahead=60 / rc=crf / mbtree=1 / crf=20.0 / qcomp=0.60 / qpmin=0 / qpmax=69 / qpstep=4 / vbv_maxrate=62500 / vbv_bufsize=78125 / crf_max=0.0 / nal_hrd=none / filler=0 / ip_ratio=1.40 / aq=1:1.00
    Language                                 : English
    Default                                  : Yes
    Forced                                   : No
    Color range                              : Limited
    Color primaries                          : BT.709
    Transfer characteristics                 : BT.709
    Matrix coefficients                      : BT.709
    Statistics Tags Issue                    : mkvmerge v15.0.0 ('Duel with the Devil') 64-bit 2018-03-31 00:15:33 / mkvmerge v15.0.0 ('Duel with the Devil') 64-bit 2018-03-31 00:15:33 / UTC 2018-03-30T17:58:23Z
    FromStats_BitRate                        : 11781358
    FromStats_Duration                       : 01:42:04.619000000
    FromStats_FrameCount                     : 146844
    FromStats_StreamSize                     : 9019541788

    Audio #1
    ID                                       : 2
    Format                                   : DTS
    Format/Info                              : Digital Theater Systems
    Mode                                     : 16
    Format settings, Endianness              : Big
    Codec ID                                 : A_DTS
    Duration                                 : 1 h 42 min
    Bit rate mode                            : Constant
    Bit rate                                 : 768 kb/s
    Channel(s)                               : 2 channels
    Channel positions                        : Front: L R
    Sampling rate                            : 48.0 kHz
    Frame rate                               : 93.750 FPS (512 SPF)
    Bit depth                                : 24 bits
    Compression mode                         : Lossy
    Stream size                              : 561 MiB (5%)
    Language                                 : Spanish
    Default                                  : Yes
    Forced                                   : No
    Statistics Tags Issue                    : mkvmerge v15.0.0 ('Duel with the Devil') 64-bit 2018-03-31 00:15:33 / mkvmerge v15.0.0 ('Duel with the Devil') 64-bit 2018-03-31 00:15:33 / UTC 2018-03-30T17:58:23Z
    FromStats_BitRate                        : 768000
    FromStats_Duration                       : 01:42:04.608000000
    FromStats_FrameCount                     : 574182
    FromStats_StreamSize                     : 587962368

    Audio #2
    ID                                       : 3
    Format                                   : DTS
    Format/Info                              : Digital Theater Systems
    Mode                                     : 16
    Format settings, Endianness              : Big
    Codec ID                                 : A_DTS
    Duration                                 : 1 h 42 min
    Bit rate mode                            : Constant
    Bit rate                                 : 1 509 kb/s
    Channel(s)                               : 2 channels
    Channel positions                        : Front: L R
    Sampling rate                            : 48.0 kHz
    Frame rate                               : 93.750 FPS (512 SPF)
    Bit depth                                : 24 bits
    Compression mode                         : Lossy
    Stream size                              : 1.08 GiB (11%)
    Language                                 : English
    Default                                  : No
    Forced                                   : No
    Statistics Tags Issue                    : mkvmerge v15.0.0 ('Duel with the Devil') 64-bit 2018-03-31 00:15:33 / mkvmerge v15.0.0 ('Duel with the Devil') 64-bit 2018-03-31 00:15:33 / UTC 2018-03-30T17:58:23Z
    FromStats_BitRate                        : 1509000
    FromStats_Duration                       : 01:42:04.608000000
    FromStats_FrameCount                     : 574182
    FromStats_StreamSize                     : 1155254184

    Text #1
    ID                                       : 4
    Format                                   : PGS
    Muxing mode                              : zlib
    Codec ID                                 : S_HDMV/PGS
    Codec ID/Info                            : Picture based subtitle format used on BDs/HD-DVDs
    Language                                 : English
    Default                                  : No
    Forced                                   : No
    Statistics Tags Issue                    : mkvmerge v15.0.0 ('Duel with the Devil') 64-bit 2018-03-31 00:15:33 / mkvmerge v15.0.0 ('Duel with the Devil') 64-bit 2018-03-31 00:15:33 / UTC 2018-03-30T17:58:23Z
    FromStats_BitRate                        : 34342
    FromStats_Duration                       : 01:38:52.093000000
    FromStats_FrameCount                     : 2315
    FromStats_StreamSize                     : 25465704

    Text #2
    ID                                       : 5
    Format                                   : PGS
    Muxing mode                              : zlib
    Codec ID                                 : S_HDMV/PGS
    Codec ID/Info                            : Picture based subtitle format used on BDs/HD-DVDs
    Language                                 : Spanish
    Default                                  : No
    Forced                                   : No
    Statistics Tags Issue                    : mkvmerge v15.0.0 ('Duel with the Devil') 64-bit 2018-03-31 00:15:33 / mkvmerge v15.0.0 ('Duel with the Devil') 64-bit 2018-03-31 00:15:33 / UTC 2018-03-30T17:58:23Z
    FromStats_BitRate                        : 31883
    FromStats_Duration                       : 01:35:53.957000000
    FromStats_FrameCount                     : 1863
    FromStats_StreamSize                     : 22932182

    Menu
    00:00:00.000                             : :Chapter 1
    00:05:02.010                             : :Chapter 2
    00:09:36.117                             : :Chapter 3
    00:15:52.577                             : :Chapter 4
    00:19:25.498                             : :Chapter 5
    00:27:48.083                             : :Chapter 6
    00:31:05.489                             : :Chapter 7
    00:42:28.838                             : :Chapter 8
    00:51:36.844                             : :Chapter 9
    00:56:19.793                             : :Chapter 10
    01:01:01.032                             : :Chapter 11
    01:02:32.582                             : :Chapter 12
    01:07:34.842                             : :Chapter 13
    01:13:17.685                             : :Chapter 14
    01:19:46.532                             : :Chapter 15
    01:27:30.996                             : :Chapter 16
    01:29:42.502                             : :Chapter 17
    01:41:28.040                             : :Chapter 18

  • Peso: 10.0 GiB

Sinopsis

Dave Garland, locutor de radio en California, recibe frecuentes llamadas de una mujer llamada Evelyn. Tras una de estas llamadas, decide quedar con ella, pero descubrirá que Evelyn no es la chica dulce que ella cree, sino una fan obsesionada con él.

Ficha técnica

Video trailer de la película

Enlaces de descarga

Rip de Bluray

Descargar Escalofrío en la noche (1971) Full 1080p Latino




Aportes de DPeliculasHDmega la pass es:dpeliculashdmega.org Aportes de CinemaniaHD la pass es:cinemaniahdd.com

Películas relacionadas

  • Tully (2018) 1080p Latino

    2018
    Tully (2018) 1080p Latino

    0.0 1 h 35 min 2018

    La historia de una mujer con tres hijos que, incapaz de lidiar con su bebé recién nacido, contrata...

    Director: Jason Reitman

    Género: Comedia

    Actores: Stormy Ent

  • Si solo pudiera imaginar (2018) Full 1080p Latino

    2018
    Si solo pudiera imaginar (2018) Full 1080p Latino

    5.0 1 h 50 min 2018

    La historia real de la aclamada canción "I Can Only Imagine", la canción cristiana contemporánea más...

    Director: Jon Erwin

    Género: Drama

    Actores: Trace Adkins

  • El Justiciero (2014) Full 1080p Latino

    2014
    El Justiciero (2014) Full 1080p Latino

    4.0 2 h 12 min 2014

    Robert McCall, un antiguo agente de la CIA que lleva ahora una vida tranquila, abandona su retiro para...

    Director: Deirdre Horgan

    Género: Acción

    Actores: Yan Dron

Comentarios 2
  • Enrique - 11 mayo, 2018

    Hola, buenas tardes.
    Descargué esta película vía 1FICHIER y ninguno de los passwords los acepta.

    Saludos

    • dpelis - 13 mayo, 2018

      debe funcionar amigo. ya lo probe, debe usar winrar full