Encuentros cercanos del tercer tipo (1977) [Director’s Cut] Full 1080p Latino

1.462 vistas
1 estrella2 estrellas3 estrellas4 estrellas5 estrellas (3 votos, promedio: 5,00 de 5)
Cargando…

Información de Encuentros cercanos del tercer tipo (1977) [Director’s Cut] Full 1080p Latino

Datos de la película

  • Calidad: Full 1080p
  • Audio: Español Latino AC3 5.1 BLURAY - Ingles DTS 5.1 BLURAY
  • Subtitulos: Español Latino PGS - Ingles PGS
  • Resolución: 1920x1080p
  • Formato: MKV
  • Codec: H.264
  • Encoder: Dracarys
  • Mediainfo: Clic para Mostrar Datos Ver
  • Format                                   : Matroska
    Format version                           : Version 4 / Version 2
    File size                                : 14.8 GiB
    Duration                                 : 2 h 17 min
    Overall bit rate                         : 15.4 Mb/s
    Movie name                               : CinemaniaHDD.com
    Encoded date                             : UTC 2018-05-16 05:08:48 / UTC 2018-05-14T03:48:58Z
    Writing application                      : mkvmerge v15.0.0 ('Duel with the Devil') 64-bit
    Writing library                          : libebml v1.3.5 + libmatroska v1.4.5 / Lavf57.7.2

    Video
    ID                                       : 1
    Format                                   : AVC
    Format/Info                              : Advanced Video Codec
    Format profile                           : High@L4.1
    Format settings                          : CABAC / 4 Ref Frames
    Format settings, CABAC                   : Yes
    Format settings, RefFrames               : 4 frames
    Codec ID                                 : V_MPEG4/ISO/AVC
    Duration                                 : 2 h 17 min
    Bit rate                                 : 13.1 Mb/s
    Width                                    : 1 920 pixels
    Height                                   : 1 080 pixels
    Display aspect ratio                     : 16:9
    Frame rate mode                          : Constant
    Frame rate                               : 23.976 (24000/1001) FPS
    Color space                              : YUV
    Chroma subsampling                       : 4:2:0
    Bit depth                                : 8 bits
    Scan type                                : Progressive
    Bits/(Pixel*Frame)                       : 0.264
    Stream size                              : 12.6 GiB (85%)
    Title                                    : Encuentros cercanos del tercer tipo (1977) Full 1080p Latino
    Writing library                          : x264 core 148 r2708 86b7198
    Encoding settings                        : cabac=1 / ref=4 / deblock=1:0:0 / analyse=0x3:0x133 / me=esa / subme=9 / psy=1 / psy_rd=1.00:0.00 / mixed_ref=1 / me_range=16 / chroma_me=1 / trellis=2 / 8x8dct=1 / cqm=0 / deadzone=21,11 / fast_pskip=1 / chroma_qp_offset=-2 / threads=34 / lookahead_threads=2 / sliced_threads=0 / nr=0 / decimate=1 / interlaced=0 / bluray_compat=0 / constrained_intra=0 / bframes=3 / b_pyramid=2 / b_adapt=2 / b_bias=0 / direct=3 / weightb=1 / open_gop=0 / weightp=2 / keyint=240 / keyint_min=24 / scenecut=40 / intra_refresh=0 / rc_lookahead=60 / rc=crf / mbtree=1 / crf=20.0 / qcomp=0.60 / qpmin=0 / qpmax=69 / qpstep=4 / vbv_maxrate=62500 / vbv_bufsize=78125 / crf_max=0.0 / nal_hrd=none / filler=0 / ip_ratio=1.40 / aq=1:1.00
    Language                                 : English
    Default                                  : Yes
    Forced                                   : No
    Color range                              : Limited
    Color primaries                          : BT.709
    Transfer characteristics                 : BT.709
    Matrix coefficients                      : BT.709
    Statistics Tags Issue                    : mkvmerge v15.0.0 ('Duel with the Devil') 64-bit 2018-05-16 05:08:48 / mkvmerge v15.0.0 ('Duel with the Devil') 64-bit 2018-05-16 05:08:48 / UTC 2018-05-14T03:48:58Z
    FromStats_BitRate                        : 13436764
    FromStats_Duration                       : 02:17:14.310000000
    FromStats_FrameCount                     : 197426
    FromStats_StreamSize                     : 13830310459

    Audio #1
    ID                                       : 2
    Format                                   : AC-3
    Format/Info                              : Audio Coding 3
    Format settings, Endianness              : Big
    Codec ID                                 : A_AC3
    Duration                                 : 2 h 17 min
    Bit rate mode                            : Constant
    Bit rate                                 : 448 kb/s
    Channel(s)                               : 6 channels
    Channel positions                        : Front: L C R, Side: L R, LFE
    Sampling rate                            : 48.0 kHz
    Frame rate                               : 31.250 FPS (1536 SPF)
    Bit depth                                : 16 bits
    Compression mode                         : Lossy
    Stream size                              : 440 MiB (3%)
    Language                                 : Spanish
    Service kind                             : Complete Main
    Default                                  : Yes
    Forced                                   : No
    Statistics Tags Issue                    : mkvmerge v15.0.0 ('Duel with the Devil') 64-bit 2018-05-16 05:08:48 / mkvmerge v15.0.0 ('Duel with the Devil') 64-bit 2018-05-16 05:08:48 / UTC 2018-05-14T03:48:58Z
    FromStats_BitRate                        : 448000
    FromStats_Duration                       : 02:17:14.432000000
    FromStats_FrameCount                     : 257326
    FromStats_StreamSize                     : 461128192

    Audio #2
    ID                                       : 3
    Format                                   : DTS
    Format/Info                              : Digital Theater Systems
    Mode                                     : 16
    Format settings, Endianness              : Big
    Codec ID                                 : A_DTS
    Duration                                 : 2 h 17 min
    Bit rate mode                            : Constant
    Bit rate                                 : 1 509 kb/s
    Channel(s)                               : 6 channels
    Channel positions                        : Front: L C R, Side: L R, LFE
    Sampling rate                            : 48.0 kHz
    Frame rate                               : 93.750 FPS (512 SPF)
    Bit depth                                : 24 bits
    Compression mode                         : Lossy
    Stream size                              : 1.45 GiB (10%)
    Language                                 : English
    Default                                  : No
    Forced                                   : No
    Statistics Tags Issue                    : mkvmerge v15.0.0 ('Duel with the Devil') 64-bit 2018-05-16 05:08:48 / mkvmerge v15.0.0 ('Duel with the Devil') 64-bit 2018-05-16 05:08:48 / UTC 2018-05-14T03:48:58Z
    FromStats_BitRate                        : 1509000
    FromStats_Duration                       : 02:17:14.368000000
    FromStats_FrameCount                     : 771972
    FromStats_StreamSize                     : 1553207664

    Text #1
    ID                                       : 4
    Format                                   : UTF-8
    Codec ID                                 : S_TEXT/UTF8
    Codec ID/Info                            : UTF-8 Plain Text
    Title                                    : Forzados-SRT
    Language                                 : Spanish
    Default                                  : Yes
    Forced                                   : Yes
    Statistics Tags Issue                    : mkvmerge v15.0.0 ('Duel with the Devil') 64-bit 2018-05-16 05:08:48 / mkvmerge v15.0.0 ('Duel with the Devil') 64-bit 2018-05-16 05:08:48 / UTC 2018-05-14T03:48:58Z
    FromStats_BitRate                        : 0
    FromStats_Duration                       : 01:12:44.120000000
    FromStats_FrameCount                     : 15
    FromStats_StreamSize                     : 501

    Text #2
    ID                                       : 5
    Format                                   : PGS
    Muxing mode                              : zlib
    Codec ID                                 : S_HDMV/PGS
    Codec ID/Info                            : Picture based subtitle format used on BDs/HD-DVDs
    Language                                 : English
    Default                                  : No
    Forced                                   : No
    Statistics Tags Issue                    : mkvmerge v15.0.0 ('Duel with the Devil') 64-bit 2018-05-16 05:08:48 / mkvmerge v15.0.0 ('Duel with the Devil') 64-bit 2018-05-16 05:08:48 / UTC 2018-05-14T03:48:58Z
    FromStats_BitRate                        : 21390
    FromStats_Duration                       : 02:11:00.597000000
    FromStats_FrameCount                     : 2069
    FromStats_StreamSize                     : 21017794

    Text #3
    ID                                       : 6
    Format                                   : PGS
    Muxing mode                              : zlib
    Codec ID                                 : S_HDMV/PGS
    Codec ID/Info                            : Picture based subtitle format used on BDs/HD-DVDs
    Language                                 : Spanish
    Default                                  : No
    Forced                                   : No
    Statistics Tags Issue                    : mkvmerge v15.0.0 ('Duel with the Devil') 64-bit 2018-05-16 05:08:48 / mkvmerge v15.0.0 ('Duel with the Devil') 64-bit 2018-05-16 05:08:48 / UTC 2018-05-14T03:48:58Z
    FromStats_BitRate                        : 17371
    FromStats_Duration                       : 02:12:50.833000000
    FromStats_FrameCount                     : 2035
    FromStats_StreamSize                     : 17308102

    Menu
    00:00:00.000                             : :Chapter 1
    00:11:04.122                             : :Chapter 2
    00:14:41.381                             : :Chapter 3
    00:19:57.196                             : :Chapter 4
    00:24:07.404                             : :Chapter 5
    00:37:22.657                             : :Chapter 6
    00:48:38.874                             : :Chapter 7
    01:01:18.425                             : :Chapter 8
    01:19:32.768                             : :Chapter 9
    01:22:04.002                             : :Chapter 10
    01:26:26.807                             : :Chapter 11
    01:34:00.260                             : :Chapter 12
    01:42:35.983                             : :Chapter 13
    01:45:42.545                             : :Chapter 14
    01:48:48.230                             : :Chapter 15
    01:53:43.567                             : :Chapter 16
    01:57:49.896                             : :Chapter 17
    02:02:00.688                             : :Chapter 18
    02:05:52.712                             : :Chapter 19
    02:11:32.593                             : :Chapter 20

  • Peso: 14.8 GiB

Sinopsis

Una noche, cerca de su casa, en Indiana, Roy Neary (Richard Dreyfuss) observa en el cielo unos misteriosos objetos voladores. Obsesionado por comprender lo que ha visto, se distancia de su esposa (Teri Garr). Neary encuentra apoyo en Jillian Guiler (Melinda Dillon), que también fue testigo de esas visiones nocturnas. Juntos buscan una respuesta a ese misterio que ha alterado sus vidas. Al mismo tiempo, un nutrido grupo de científicos internacionales, bajo la dirección de Claude Lacombe (François Truffaut), empieza a investigar las apariciones de OVNIS y otros extraños fenómenos.

Ficha técnica

Video trailer de la película

Enlaces de descarga

Rip de Bluray

Descargar Encuentros cercanos del tercer tipo (1977) [Director’s Cut] Full 1080p Latino




Aportes de DPeliculasHDmega la pass es:dpeliculashdmega.org Aportes de CinemaniaHD la pass es:cinemaniahdd.com

Películas relacionadas

Comentarios 0