En la luna (2009) Full 1080p Latino

1.041 vistas
1 estrella2 estrellas3 estrellas4 estrellas5 estrellas (5 votos, promedio: 4,00 de 5)
Cargando…

Información de En la luna (2009) Full 1080p Latino

Datos de la película

  • Calidad: Full 1080p
  • Audio: Español Latino AC3 5.1 BLURAY - Ingles DTS 5.1 BLURAY
  • Subtitulos: Español Latino PGS - Ingles PGS
  • Resolución: 1910x1080p
  • Formato: MKV
  • Codec: H.264
  • Encoder: Dracarys
  • Mediainfo: Clic para Mostrar Datos Ver
  • Format                                   : Matroska
    Format version                           : Version 4 / Version 2
    File size                                : 4.55 GiB
    Duration                                 : 1 h 37 min
    Overall bit rate                         : 6 704 kb/s
    Movie name                               : CinemaniaHDD.net
    Encoded date                             : UTC 2018-05-29 04:14:43 / UTC 2018-05-28T12:38:35Z
    Writing application                      : mkvmerge v15.0.0 ('Duel with the Devil') 64-bit
    Writing library                          : libebml v1.3.5 + libmatroska v1.4.5 / Lavf57.7.2

    Video
    ID                                       : 1
    Format                                   : AVC
    Format/Info                              : Advanced Video Codec
    Format profile                           : High@L4.1
    Format settings                          : CABAC / 4 Ref Frames
    Format settings, CABAC                   : Yes
    Format settings, RefFrames               : 4 frames
    Codec ID                                 : V_MPEG4/ISO/AVC
    Duration                                 : 1 h 37 min
    Bit rate                                 : 4 422 kb/s
    Width                                    : 1 920 pixels
    Height                                   : 1 080 pixels
    Display aspect ratio                     : 16:9
    Frame rate mode                          : Constant
    Frame rate                               : 23.976 (24000/1001) FPS
    Color space                              : YUV
    Chroma subsampling                       : 4:2:0
    Bit depth                                : 8 bits
    Scan type                                : Progressive
    Bits/(Pixel*Frame)                       : 0.089
    Stream size                              : 3.00 GiB (66%)
    Title                                    : En la luna (2009) Full 1080p Latino
    Writing library                          : x264 core 148 r2708 86b7198
    Encoding settings                        : cabac=1 / ref=4 / deblock=1:0:0 / analyse=0x3:0x133 / me=esa / subme=9 / psy=1 / psy_rd=1.00:0.00 / mixed_ref=1 / me_range=16 / chroma_me=1 / trellis=2 / 8x8dct=1 / cqm=0 / deadzone=21,11 / fast_pskip=1 / chroma_qp_offset=-2 / threads=34 / lookahead_threads=2 / sliced_threads=0 / nr=0 / decimate=1 / interlaced=0 / bluray_compat=0 / constrained_intra=0 / bframes=3 / b_pyramid=2 / b_adapt=2 / b_bias=0 / direct=3 / weightb=1 / open_gop=0 / weightp=2 / keyint=240 / keyint_min=24 / scenecut=40 / intra_refresh=0 / rc_lookahead=60 / rc=crf / mbtree=1 / crf=20.0 / qcomp=0.60 / qpmin=0 / qpmax=69 / qpstep=4 / vbv_maxrate=62500 / vbv_bufsize=78125 / crf_max=0.0 / nal_hrd=none / filler=0 / ip_ratio=1.40 / aq=1:1.00
    Language                                 : English
    Default                                  : Yes
    Forced                                   : No
    Color range                              : Limited
    Color primaries                          : BT.709
    Transfer characteristics                 : BT.709
    Matrix coefficients                      : BT.709
    Statistics Tags Issue                    : mkvmerge v15.0.0 ('Duel with the Devil') 64-bit 2018-05-29 04:14:43 / mkvmerge v15.0.0 ('Duel with the Devil') 64-bit 2018-05-29 04:14:43 / UTC 2018-05-28T12:38:35Z
    FromStats_BitRate                        : 4535266
    FromStats_Duration                       : 01:37:09.783000000
    FromStats_FrameCount                     : 139775
    FromStats_StreamSize                     : 3304952432

    Audio #1
    ID                                       : 2
    Format                                   : AC-3
    Format/Info                              : Audio Coding 3
    Format settings, Endianness              : Big
    Codec ID                                 : A_AC3
    Duration                                 : 1 h 37 min
    Bit rate mode                            : Constant
    Bit rate                                 : 640 kb/s
    Channel(s)                               : 6 channels
    Channel positions                        : Front: L C R, Side: L R, LFE
    Sampling rate                            : 48.0 kHz
    Frame rate                               : 31.250 FPS (1536 SPF)
    Bit depth                                : 16 bits
    Compression mode                         : Lossy
    Stream size                              : 445 MiB (10%)
    Language                                 : Spanish
    Service kind                             : Complete Main
    Default                                  : Yes
    Forced                                   : No
    Statistics Tags Issue                    : mkvmerge v15.0.0 ('Duel with the Devil') 64-bit 2018-05-29 04:14:43 / mkvmerge v15.0.0 ('Duel with the Devil') 64-bit 2018-05-29 04:14:43 / UTC 2018-05-28T12:38:35Z
    FromStats_BitRate                        : 640000
    FromStats_Duration                       : 01:37:09.824000000
    FromStats_FrameCount                     : 182182
    FromStats_StreamSize                     : 466385920

    Audio #2
    ID                                       : 3
    Format                                   : DTS
    Format/Info                              : Digital Theater Systems
    Mode                                     : 16
    Format settings, Endianness              : Big
    Codec ID                                 : A_DTS
    Duration                                 : 1 h 37 min
    Bit rate mode                            : Constant
    Bit rate                                 : 1 509 kb/s
    Channel(s)                               : 6 channels
    Channel positions                        : Front: L C R, Side: L R, LFE
    Sampling rate                            : 48.0 kHz
    Frame rate                               : 93.750 FPS (512 SPF)
    Bit depth                                : 24 bits
    Compression mode                         : Lossy
    Stream size                              : 1.02 GiB (23%)
    Language                                 : English
    Default                                  : No
    Forced                                   : No
    Statistics Tags Issue                    : mkvmerge v15.0.0 ('Duel with the Devil') 64-bit 2018-05-29 04:14:43 / mkvmerge v15.0.0 ('Duel with the Devil') 64-bit 2018-05-29 04:14:43 / UTC 2018-05-28T12:38:35Z
    FromStats_BitRate                        : 1508999
    FromStats_Duration                       : 01:37:09.814000000
    FromStats_FrameCount                     : 546545
    FromStats_StreamSize                     : 1099648540

    Text #1
    ID                                       : 4
    Format                                   : PGS
    Muxing mode                              : zlib
    Codec ID                                 : S_HDMV/PGS
    Codec ID/Info                            : Picture based subtitle format used on BDs/HD-DVDs
    Language                                 : English
    Default                                  : No
    Forced                                   : No
    Statistics Tags Issue                    : mkvmerge v15.0.0 ('Duel with the Devil') 64-bit 2018-05-29 04:14:43 / mkvmerge v15.0.0 ('Duel with the Devil') 64-bit 2018-05-29 04:14:43 / UTC 2018-05-28T12:38:35Z
    FromStats_BitRate                        : 28698
    FromStats_Duration                       : 01:32:26.917000000
    FromStats_FrameCount                     : 1798
    FromStats_StreamSize                     : 19898825

    Text #2
    ID                                       : 5
    Format                                   : PGS
    Muxing mode                              : zlib
    Codec ID                                 : S_HDMV/PGS
    Codec ID/Info                            : Picture based subtitle format used on BDs/HD-DVDs
    Language                                 : Spanish
    Default                                  : No
    Forced                                   : No
    Statistics Tags Issue                    : mkvmerge v15.0.0 ('Duel with the Devil') 64-bit 2018-05-29 04:14:43 / mkvmerge v15.0.0 ('Duel with the Devil') 64-bit 2018-05-29 04:14:43 / UTC 2018-05-28T12:38:35Z
    FromStats_BitRate                        : 29029
    FromStats_Duration                       : 01:32:30.754000000
    FromStats_FrameCount                     : 1829
    FromStats_StreamSize                     : 20142069

    Menu
    00:00:00.000                             : :Chapter 1
    00:05:41.967                             : :Chapter 2
    00:11:05.165                             : :Chapter 3
    00:18:00.955                             : :Chapter 4
    00:22:58.836                             : :Chapter 5
    00:28:47.976                             : :Chapter 6
    00:34:35.699                             : :Chapter 7
    00:42:52.987                             : :Chapter 8
    00:47:28.012                             : :Chapter 9
    00:54:35.939                             : :Chapter 10
    01:01:55.212                             : :Chapter 11
    01:07:38.221                             : :Chapter 12
    01:13:15.182                             : :Chapter 13
    01:16:49.939                             : :Chapter 14
    01:22:32.656                             : :Chapter 15
    01:30:40.143                             : :Chapter 16

  • Peso: 4.55 GiB

Sinopsis

La película cuenta la historia de Sam Bell, un astronauta que se encuentra cerca de finalizar su contrato con Lunar, empresa para la que ha trabajado durante tres años viviendo en Selene, una base lunar desde la que ha estado extrayendo gas de la mina Helium 3, a causa de la terrible crisis energética que está pasando la Tierra. Dos semanas antes de su regreso a casa con su mujer y su hija, Sam comienza a tener extrañas visiones y a sentirse extraño, pero no será hasta la llegada de sus sustituto cuando Sam vea sus sospechas en cuanto a los verdaderos propósitos de Lunar hechos realidad, pues algo más que su contrato va a expirar en breve.

Ficha técnica

Video trailer de la película

Enlaces de descarga

Rip de Bluray

Descargar En la luna (2009) Full 1080p Latino




Aportes de DPeliculasHDmega la pass es:dpeliculashdmega.org Aportes de CinemaniaHD la pass es:cinemaniahdd.com

Películas relacionadas

  • Luke Cage (2018) Temporada 2 NF 1080p Latino

    2018
    Luke Cage (2018) Temporada 2 NF 1080p Latino

    1.0 0h 46m 2018

    De acuerdo a la sinopsis oficial de la segunda temporada, Luke Cage se ha convertido en un héroe reconocido...

    Director: Cheo Hodari Coker

    Género: Action & Adventure

    Actores: Theo Rossi

  • Luke Cage (2016) Temporada 1 NF 1080p Latino

    2016
    Luke Cage (2016) Temporada 1 NF 1080p Latino

    1.0 0h 46m 2016

    Como consecuencia de un experimento fallido, Luke Cage (Mike Colter) ha desarrollado una piel indestructible...

    Director: Cheo Hodari Coker

    Género: Action & Adventure

    Actores: Theo Rossi

  • Lady Bird (2017) Full 1080p Latino

    2017
    Lady Bird (2017) Full 1080p Latino

    5.0 1h 34m 2017

    Sacramento, California, año 2002. Una joven llamada Christine McPherson (Saoirse Ronan), apodada como...

    Director: Jonas Spaccarotelli

    Género: Comedia

    Actores: Tracy Letts

  • Plan de escape (2013) Full 1080p Latino

    2013
    Plan de escape (2013) Full 1080p Latino

    3.0 1h 56m 2013

    El experto en seguridad Ray Breslin prueba sus teorías poco convencionales en diseño de prisiones elaborando...

    Director: Mikael Håfström

    Género: Acción

    Actores: Vinnie Jones

  • El sentido de un final (2017) 1080p Latino

    2017
    El sentido de un final (2017) 1080p Latino

    0.0 1h 48m 2017

    Tony Webster, un hombre jubilado y divorciado, mantiene una tranquila y solitaria vida. Un día descubre...

    Director: Ritesh Batra

    Género: 1080p Portada Negra

    Actores: Timothy Innes

Comentarios 0