El violinista en el tejado (1971) Full 1080p Latino

747 vistas
1 estrella2 estrellas3 estrellas4 estrellas5 estrellas (2 votos, promedio: 5,00 de 5)
Cargando…

Información de El violinista en el tejado (1971) Full 1080p Latino

Datos de la película

  • Calidad: Full 1080p
  • Audio: Español Latino AC3 2.0 BLURAY - Ingles DTS 5.1 BLURAY
  • Subtitulos: Español Latino PGS - Ingles PGS
  • Resolución: 1920x1080p
  • Formato: MKV
  • Codec: H.264
  • Encoder: Dracarys
  • Mediainfo: Clic para Mostrar Datos Ver
  • Format                                   : Matroska
    Format version                           : Version 4 / Version 2
    File size                                : 14.0 GiB
    Duration                                 : 3 h 1 min
    Overall bit rate                         : 11.1 Mb/s
    Movie name                               : CinemaniaHDD.com
    Encoded date                             : UTC 2018-05-03 22:23:32 / UTC 2018-04-23T02:04:27Z
    Writing application                      : mkvmerge v15.0.0 ('Duel with the Devil') 64-bit
    Writing library                          : libebml v1.3.5 + libmatroska v1.4.5 / Lavf57.7.2

    Video
    ID                                       : 1
    Format                                   : AVC
    Format/Info                              : Advanced Video Codec
    Format profile                           : High@L4.1
    Format settings                          : CABAC / 4 Ref Frames
    Format settings, CABAC                   : Yes
    Format settings, RefFrames               : 4 frames
    Codec ID                                 : V_MPEG4/ISO/AVC
    Duration                                 : 3 h 1 min
    Bit rate                                 : 8 946 kb/s
    Width                                    : 1 920 pixels
    Height                                   : 1 080 pixels
    Display aspect ratio                     : 16:9
    Frame rate mode                          : Constant
    Frame rate                               : 23.976 (24000/1001) FPS
    Color space                              : YUV
    Chroma subsampling                       : 4:2:0
    Bit depth                                : 8 bits
    Scan type                                : Progressive
    Bits/(Pixel*Frame)                       : 0.180
    Stream size                              : 11.3 GiB (81%)
    Title                                    : El violinista en el tejado (1971) Full 1080p Latino
    Writing library                          : x264 core 148 r2708 86b7198
    Encoding settings                        : cabac=1 / ref=4 / deblock=1:0:0 / analyse=0x3:0x133 / me=esa / subme=9 / psy=1 / psy_rd=1.00:0.00 / mixed_ref=1 / me_range=16 / chroma_me=1 / trellis=2 / 8x8dct=1 / cqm=0 / deadzone=21,11 / fast_pskip=1 / chroma_qp_offset=-2 / threads=34 / lookahead_threads=2 / sliced_threads=0 / nr=0 / decimate=1 / interlaced=0 / bluray_compat=0 / constrained_intra=0 / bframes=3 / b_pyramid=2 / b_adapt=2 / b_bias=0 / direct=3 / weightb=1 / open_gop=0 / weightp=2 / keyint=240 / keyint_min=24 / scenecut=40 / intra_refresh=0 / rc_lookahead=60 / rc=crf / mbtree=1 / crf=20.0 / qcomp=0.60 / qpmin=0 / qpmax=69 / qpstep=4 / vbv_maxrate=62500 / vbv_bufsize=78125 / crf_max=0.0 / nal_hrd=none / filler=0 / ip_ratio=1.40 / aq=1:1.00
    Language                                 : English
    Default                                  : Yes
    Forced                                   : No
    Color range                              : Limited
    Color primaries                          : BT.709
    Transfer characteristics                 : BT.709
    Matrix coefficients                      : BT.709
    Statistics Tags Issue                    : mkvmerge v15.0.0 ('Duel with the Devil') 64-bit 2018-05-03 22:23:32 / mkvmerge v15.0.0 ('Duel with the Devil') 64-bit 2018-05-03 22:23:32 / UTC 2018-04-23T02:04:27Z
    FromStats_BitRate                        : 9144213
    FromStats_Duration                       : 03:01:07.357000000
    FromStats_FrameCount                     : 260556
    FromStats_StreamSize                     : 12421679567

    Audio #1
    ID                                       : 2
    Format                                   : AC-3
    Format/Info                              : Audio Coding 3
    Format settings, Endianness              : Big
    Codec ID                                 : A_AC3
    Duration                                 : 3 h 1 min
    Bit rate mode                            : Constant
    Bit rate                                 : 384 kb/s
    Channel(s)                               : 2 channels
    Channel positions                        : Front: L R
    Sampling rate                            : 48.0 kHz
    Frame rate                               : 31.250 FPS (1536 SPF)
    Bit depth                                : 16 bits
    Compression mode                         : Lossy
    Stream size                              : 497 MiB (3%)
    Language                                 : Spanish
    Service kind                             : Complete Main
    Default                                  : Yes
    Forced                                   : No
    Statistics Tags Issue                    : mkvmerge v15.0.0 ('Duel with the Devil') 64-bit 2018-05-03 22:23:32 / mkvmerge v15.0.0 ('Duel with the Devil') 64-bit 2018-05-03 22:23:32 / UTC 2018-04-23T02:04:27Z
    FromStats_BitRate                        : 384000
    FromStats_Duration                       : 03:01:07.360000000
    FromStats_FrameCount                     : 339605
    FromStats_StreamSize                     : 521633280

    Audio #2
    ID                                       : 3
    Format                                   : DTS
    Format/Info                              : Digital Theater Systems
    Mode                                     : 16
    Format settings, Endianness              : Big
    Codec ID                                 : A_DTS
    Duration                                 : 3 h 1 min
    Bit rate mode                            : Constant
    Bit rate                                 : 1 509 kb/s
    Channel(s)                               : 6 channels
    Channel positions                        : Front: L C R, Side: L R, LFE
    Sampling rate                            : 48.0 kHz
    Frame rate                               : 93.750 FPS (512 SPF)
    Bit depth                                : 24 bits
    Compression mode                         : Lossy
    Stream size                              : 1.91 GiB (14%)
    Language                                 : English
    Default                                  : No
    Forced                                   : No
    Statistics Tags Issue                    : mkvmerge v15.0.0 ('Duel with the Devil') 64-bit 2018-05-03 22:23:32 / mkvmerge v15.0.0 ('Duel with the Devil') 64-bit 2018-05-03 22:23:32 / UTC 2018-04-23T02:04:27Z
    FromStats_BitRate                        : 1508999
    FromStats_Duration                       : 03:01:07.350000000
    FromStats_FrameCount                     : 1018814
    FromStats_StreamSize                     : 2049853768

    Text #1
    ID                                       : 4
    Format                                   : PGS
    Muxing mode                              : zlib
    Codec ID                                 : S_HDMV/PGS
    Codec ID/Info                            : Picture based subtitle format used on BDs/HD-DVDs
    Language                                 : English
    Default                                  : No
    Forced                                   : No
    Statistics Tags Issue                    : mkvmerge v15.0.0 ('Duel with the Devil') 64-bit 2018-05-03 22:23:32 / mkvmerge v15.0.0 ('Duel with the Devil') 64-bit 2018-05-03 22:23:32 / UTC 2018-04-23T02:04:27Z
    FromStats_BitRate                        : 27661
    FromStats_Duration                       : 02:58:31.159000000
    FromStats_FrameCount                     : 4241
    FromStats_StreamSize                     : 37035507

    Text #2
    ID                                       : 5
    Format                                   : PGS
    Muxing mode                              : zlib
    Codec ID                                 : S_HDMV/PGS
    Codec ID/Info                            : Picture based subtitle format used on BDs/HD-DVDs
    Language                                 : Spanish
    Default                                  : No
    Forced                                   : No
    Statistics Tags Issue                    : mkvmerge v15.0.0 ('Duel with the Devil') 64-bit 2018-05-03 22:23:32 / mkvmerge v15.0.0 ('Duel with the Devil') 64-bit 2018-05-03 22:23:32 / UTC 2018-04-23T02:04:27Z
    FromStats_BitRate                        : 25493
    FromStats_Duration                       : 02:57:35.145000000
    FromStats_FrameCount                     : 3464
    FromStats_StreamSize                     : 33954678

    Menu
    00:00:00.000                             : :Chapter 1
    00:09:42.624                             : :Chapter 2
    00:13:15.837                             : :Chapter 3
    00:17:55.032                             : :Chapter 4
    00:24:19.625                             : :Chapter 5
    00:29:53.250                             : :Chapter 6
    00:35:44.809                             : :Chapter 7
    00:39:03.633                             : :Chapter 8
    00:42:39.390                             : :Chapter 9
    00:49:08.696                             : :Chapter 10
    00:55:59.606                             : :Chapter 11
    01:01:07.289                             : :Chapter 12
    01:10:59.881                             : :Chapter 13
    01:15:16.762                             : :Chapter 14
    01:17:26.433                             : :Chapter 15
    01:21:17.915                             : :Chapter 16
    01:30:22.792                             : :Chapter 17
    01:32:16.448                             : :Chapter 18
    01:36:05.260                             : :Chapter 19
    01:41:39.594                             : :Chapter 20
    01:44:24.216                             : :Chapter 21
    01:47:37.451                             : :Chapter 22
    01:51:32.019                             : :Chapter 23
    01:53:20.377                             : :Chapter 24
    01:55:53.780                             : :Chapter 25
    02:04:08.816                             : :Chapter 26
    02:09:06.239                             : :Chapter 27
    02:13:57.321                             : :Chapter 28
    02:19:12.177                             : :Chapter 29
    02:22:17.612                             : :Chapter 30
    02:30:32.857                             : :Chapter 31
    02:35:35.243                             : :Chapter 32
    02:40:19.652                             : :Chapter 33
    02:44:22.227                             : :Chapter 34
    02:50:47.612                             : :Chapter 35
    02:58:47.717                             : :Chapter 36

  • Peso: 14.0 GiB

Sinopsis

Teyve es el lechero de un pueblo ucraniano. Vive feliz con su esposa y sus cinco hijas, todas ellas solteras. Una tarde, mientras hace su reparto, conoce a Perchick, un pobre estudiante de Kiev con ideales revolucionarios. Los dos simpatizan y Teyve le ofrece casa y comida a cambio de que le dé clases a una de sus hijas. Al mismo tiempo, Lazar Wolf, un rudo carnicero que se ha quedado viudo, pide a Teyve la mano de Tzeitel, su hija mayor, y éste se la concede.

Ficha técnica

Video trailer de la película

Enlaces de descarga

Rip de Bluray

Descargar El violinista en el tejado (1971) Full 1080p Latino




Aportes de DPeliculasHDmega la pass es:dpeliculashdmega.org Aportes de CinemaniaHD la pass es:cinemaniahdd.com

Películas relacionadas

  • Lady Bird (2017) Full 1080p Latino

    2017
    Lady Bird (2017) Full 1080p Latino

    5.0 1h 34m 2017

    Sacramento, California, año 2002. Una joven llamada Christine McPherson (Saoirse Ronan), apodada como...

    Director: Jonas Spaccarotelli

    Género: Comedia

    Actores: Tracy Letts

  • Plan de escape (2013) Full 1080p Latino

    2013
    Plan de escape (2013) Full 1080p Latino

    3.0 1h 56m 2013

    El experto en seguridad Ray Breslin prueba sus teorías poco convencionales en diseño de prisiones elaborando...

    Director: Mikael Håfström

    Género: Acción

    Actores: Vinnie Jones

  • El sentido de un final (2017) 1080p Latino

    2017
    El sentido de un final (2017) 1080p Latino

    0.0 1h 48m 2017

    Tony Webster, un hombre jubilado y divorciado, mantiene una tranquila y solitaria vida. Un día descubre...

    Director: Ritesh Batra

    Género: 1080p Portada Negra

    Actores: Timothy Innes

Comentarios 2
  • Jorge - 11 mayo, 2018

    Muchas gracias por tantos y tan buenos clásicos. Vale la pena ser VIP. Pero una consulta: hay posibilidad de tenerlos con menos tamaño? Todos pesan arriba de los 10 GB y es una lástima no poder coleccionarlos por falta de espacio (es que ocupan hasta 4 veces una peli actual, en el formato que suelo bajar). Otra vez, muchas gracias por tanto cine clásico, son joyas.

    • dpelis - 13 mayo, 2018

      son peliculas antiguas y para mantener la calidad quedan en ese peso. se usa la misma configuracion a una pelicula de 2018 pero como en estos tiempos la filmacion usan mejor tecnologia por eso el peso pesa poco,. saludos