El vagón de la muerte (2008) UNRATED Full 1080p Latino | CinemaniaHD - Descargar Peliculas 1080p Mega Google Drive

El vagón de la muerte (2008) UNRATED Full 1080p Latino

1.922 vistas
1 estrella2 estrellas3 estrellas4 estrellas5 estrellas (1 votos, promedio: 5,00 de 5)
Cargando…

Información de El vagón de la muerte (2008) UNRATED Full 1080p Latino

Datos de la película

  • Calidad: Full 1080p
  • Audio: Español Latino AC3 5.1 DVD - Ingles DTS 5.1 BLURAY
  • Subtitulos: Español Latino PGS - Ingles PGS
  • Resolución: 1920X1080
  • Formato: MKV
  • Codec: H.264
  • Encoder: Dpelis
  • Mediainfo: Clic para Mostrar Datos Ver
  • Format                                   : Matroska
    Format version                           : Version 4 / Version 2
    File size                                : 11.8 GiB
    Duration                                 : 1 h 42 min
    Overall bit rate                         : 16.4 Mb/s
    Movie name                               : dpeliculashdmega.org
    Encoded date                             : UTC 2017-11-18 03:52:28 / UTC 2017-11-11T14:51:56Z
    Writing application                      : mkvmerge v15.0.0 ('Duel with the Devil') 64-bit
    Writing library                          : libebml v1.3.5 + libmatroska v1.4.5 / Lavf57.7.2

    Video
    ID                                       : 1
    Format                                   : AVC
    Format/Info                              : Advanced Video Codec
    Format profile                           : High@L4.1
    Format settings                          : CABAC / 4 Ref Frames
    Format settings, CABAC                   : Yes
    Format settings, RefFrames               : 4 frames
    Codec ID                                 : V_MPEG4/ISO/AVC
    Duration                                 : 1 h 42 min
    Bit rate                                 : 14.1 Mb/s
    Width                                    : 1 920 pixels
    Height                                   : 1 080 pixels
    Display aspect ratio                     : 16:9
    Frame rate mode                          : Constant
    Frame rate                               : 23.976 (24000/1001) FPS
    Color space                              : YUV
    Chroma subsampling                       : 4:2:0
    Bit depth                                : 8 bits
    Scan type                                : Progressive
    Bits/(Pixel*Frame)                       : 0.284
    Stream size                              : 10.2 GiB (86%)
    Title                                    : El vagón de la muerte (2008) UNRATED Full 1080p Latino
    Writing library                          : x264 core 148 r2708 86b7198
    Encoding settings                        : cabac=1 / ref=4 / deblock=1:0:0 / analyse=0x3:0x133 / me=esa / subme=10 / psy=1 / psy_rd=1.00:0.00 / mixed_ref=1 / me_range=24 / chroma_me=1 / trellis=2 / 8x8dct=1 / cqm=0 / deadzone=21,11 / fast_pskip=1 / chroma_qp_offset=-2 / threads=34 / lookahead_threads=5 / sliced_threads=0 / nr=0 / decimate=1 / interlaced=0 / bluray_compat=0 / constrained_intra=0 / bframes=8 / b_pyramid=2 / b_adapt=2 / b_bias=0 / direct=3 / weightb=1 / open_gop=0 / weightp=2 / keyint=240 / keyint_min=24 / scenecut=40 / intra_refresh=0 / rc_lookahead=60 / rc=crf / mbtree=1 / crf=20.0 / qcomp=0.60 / qpmin=0 / qpmax=69 / qpstep=4 / vbv_maxrate=62500 / vbv_bufsize=78125 / crf_max=0.0 / nal_hrd=none / filler=0 / ip_ratio=1.40 / aq=1:1.00
    Language                                 : English
    Default                                  : Yes
    Forced                                   : No
    Color range                              : Limited
    Color primaries                          : BT.709
    Transfer characteristics                 : BT.709
    Matrix coefficients                      : BT.709
    Statistics Tags Issue                    : mkvmerge v15.0.0 ('Duel with the Devil') 64-bit 2017-11-18 03:52:28 / mkvmerge v15.0.0 ('Duel with the Devil') 64-bit 2017-11-18 03:52:28 / UTC 2017-11-11T14:51:56Z
    FromStats_BitRate                        : 14452117
    FromStats_Duration                       : 01:42:57.463000000
    FromStats_FrameCount                     : 148111
    FromStats_StreamSize                     : 11159677509

    Audio #1
    ID                                       : 2
    Format                                   : AC-3
    Format/Info                              : Audio Coding 3
    Format settings, Endianness              : Big
    Codec ID                                 : A_AC3
    Duration                                 : 1 h 42 min
    Bit rate mode                            : Constant
    Bit rate                                 : 448 kb/s
    Channel(s)                               : 6 channels
    Channel positions                        : Front: L C R, Side: L R, LFE
    Sampling rate                            : 48.0 kHz
    Frame rate                               : 31.250 FPS (1536 SPF)
    Bit depth                                : 16 bits
    Compression mode                         : Lossy
    Delay relative to video                  : 6 ms
    Stream size                              : 330 MiB (3%)
    Title                                    : Latino-AC3
    Language                                 : Spanish
    Service kind                             : Complete Main
    Default                                  : Yes
    Forced                                   : Yes
    Statistics Tags Issue                    : mkvmerge v15.0.0 ('Duel with the Devil') 64-bit 2017-11-18 03:52:28 / mkvmerge v15.0.0 ('Duel with the Devil') 64-bit 2017-11-18 03:52:28 / UTC 2017-11-11T14:51:56Z
    FromStats_BitRate                        : 448000
    FromStats_Duration                       : 01:42:49.760000000
    FromStats_FrameCount                     : 192805
    FromStats_StreamSize                     : 345506560

    Audio #2
    ID                                       : 3
    Format                                   : DTS
    Format/Info                              : Digital Theater Systems
    Mode                                     : 16
    Format settings, Endianness              : Big
    Codec ID                                 : A_DTS
    Duration                                 : 1 h 42 min
    Bit rate mode                            : Constant
    Bit rate                                 : 1 509 kb/s
    Channel(s)                               : 6 channels
    Channel positions                        : Front: L C R, Side: L R, LFE
    Sampling rate                            : 48.0 kHz
    Frame rate                               : 93.750 FPS (512 SPF)
    Bit depth                                : 24 bits
    Compression mode                         : Lossy
    Stream size                              : 1.09 GiB (9%)
    Title                                    : Ingles-DTS
    Language                                 : English
    Default                                  : No
    Forced                                   : No
    Statistics Tags Issue                    : mkvmerge v15.0.0 ('Duel with the Devil') 64-bit 2017-11-18 03:52:28 / mkvmerge v15.0.0 ('Duel with the Devil') 64-bit 2017-11-18 03:52:28 / UTC 2017-11-11T14:51:56Z
    FromStats_BitRate                        : 1509000
    FromStats_Duration                       : 01:42:57.472000000
    FromStats_FrameCount                     : 579138
    FromStats_StreamSize                     : 1165225656

    Text #1
    ID                                       : 4
    Format                                   : UTF-8
    Codec ID                                 : S_TEXT/UTF8
    Codec ID/Info                            : UTF-8 Plain Text
    Title                                    : SRT
    Language                                 : Spanish
    Default                                  : No
    Forced                                   : No
    Statistics Tags Issue                    : mkvmerge v15.0.0 ('Duel with the Devil') 64-bit 2017-11-18 03:52:28 / mkvmerge v15.0.0 ('Duel with the Devil') 64-bit 2017-11-18 03:52:28 / UTC 2017-11-11T14:51:56Z
    FromStats_BitRate                        : 26
    FromStats_Duration                       : 01:31:08.126000000
    FromStats_FrameCount                     : 537
    FromStats_StreamSize                     : 18169

    Text #2
    ID                                       : 5
    Format                                   : PGS
    Muxing mode                              : zlib
    Codec ID                                 : S_HDMV/PGS
    Codec ID/Info                            : Picture based subtitle format used on BDs/HD-DVDs
    Title                                    : PGS
    Language                                 : English
    Default                                  : No
    Forced                                   : No
    Statistics Tags Issue                    : mkvmerge v15.0.0 ('Duel with the Devil') 64-bit 2017-11-18 03:52:28 / mkvmerge v15.0.0 ('Duel with the Devil') 64-bit 2017-11-18 03:52:28 / UTC 2017-11-11T14:51:56Z
    FromStats_BitRate                        : 14712
    FromStats_Duration                       : 01:31:00.205000000
    FromStats_FrameCount                     : 1037
    FromStats_StreamSize                     : 10041719

    Text #3
    ID                                       : 6
    Format                                   : PGS
    Muxing mode                              : zlib
    Codec ID                                 : S_HDMV/PGS
    Codec ID/Info                            : Picture based subtitle format used on BDs/HD-DVDs
    Title                                    : PGS
    Language                                 : Spanish
    Default                                  : No
    Forced                                   : No
    Statistics Tags Issue                    : mkvmerge v15.0.0 ('Duel with the Devil') 64-bit 2017-11-18 03:52:28 / mkvmerge v15.0.0 ('Duel with the Devil') 64-bit 2017-11-18 03:52:28 / UTC 2017-11-11T14:51:56Z
    FromStats_BitRate                        : 14869
    FromStats_Duration                       : 01:31:08.171000000
    FromStats_FrameCount                     : 1061
    FromStats_StreamSize                     : 10163415

    Menu
    00:00:00.000                             : :00:00:00.000
    00:06:25.677                             : :00:06:25.677
    00:13:33.396                             : :00:13:33.396
    00:19:56.195                             : :00:19:56.195
    00:25:25.357                             : :00:25:25.357
    00:33:16.912                             : :00:33:16.912
    00:35:50.774                             : :00:35:50.774
    00:43:17.053                             : :00:43:17.053
    00:48:54.014                             : :00:48:54.014
    00:55:49.012                             : :00:55:49.012
    01:02:00.759                             : :01:02:00.759
    01:09:07.644                             : :01:09:07.643
    01:14:04.148                             : :01:14:04.148
    01:19:20.881                             : :01:19:20.881
    01:25:36.006                             : :01:25:36.006
    01:33:45.286                             : :01:33:45.286

  • Peso: 11.8 GiB

Sinopsis

La dueña de una exitosa galería de arte le propone al fotógrafo Leon Kauffman llevar a cabo un trabajo sobre la parte más oscura del ser humano. Sabiendo que ésta es su oportunidad para el éxito, Kauffman comienza una búsqueda obsesiva sobre el tema más oscuro que pueda existir, empezando a seguir los pasos de un asesino en serie llamado Mahogany, quien en el tren subterráneo descuartiza a sus víctimas que viajan en los servicios nocturnos. Aquí comienza un juego de obsesión que lleva al fotógrafo a meterse cada vez más profundo en los túneles de la ciudad hasta el punto de poner en riesgo su vida y la de su novia Maya, embarcándose en un viaje a las profundidades del horror.

Ficha técnica

Video trailer de la película

Enlaces de descarga

Rip de Bluray

Descargar El vagón de la muerte (2008) UNRATED Full 1080p Latino




Aportes de DPeliculasHDmega la pass es:dpeliculashdmega.org Aportes de CinemaniaHD la pass es:cinemaniahdd.com

Películas relacionadas

  • Ralph El Demoledor (2012) Full 1080p Latino

    2012
    Ralph El Demoledor (2012) Full 1080p Latino

    0.0 1h 41m 2012

    Durante décadas, Ralph ha vivido a la sombra de Repara-Félix Jr., el chico bueno de su videojuego....

    Director: Rob Dressel

    Género: Animación

    Actores: Will Deters

  • La jungla (2017) 1080p Latino

    2017
    La jungla (2017) 1080p Latino

    0.0 1h 55m 2017

    Cuenta la historia real de Yossi Ghinsberg, un joven aventurero que vivió para escribir un bestseller...

    Director: Greg McLean

    Género: 1080p Portada Negra

    Actores: Yasmin Kassim

  • V/H/S: (2014) Full 1080p Subtitulado

    2014
    V/H/S: (2014) Full 1080p Subtitulado

    4.2 1 h 21 min 2014

    Un camión está causando el caos en la calle, atropellando a todo aquel que se cruza en su camino. Mientras...

    Director: Todd Lincoln

    Género: FULL 1080p Plateadas

    Actores: Nick Blanco

  • V/H/S Las crónicas del miedo 2 (2013) Full 1080p Latino

    2013
    V/H/S Las crónicas del miedo 2 (2013) Full 1080p Latino

    4.3 1h 35m 2013

    Secuela de V/H/S (2012). Buscando a un estudiante desaparecido, dos investigadores privados irrumpen...

    Director: Timo Tjahjanto

    Género: FULL 1080p Plateadas

    Actores: Samantha Gracie

  • V/H/S Las crónicas del miedo (2012) Full 1080p Latino

    2012
    V/H/S Las crónicas del miedo (2012) Full 1080p Latino

    4.3 1 h 56 min 2012

    Un grupo de matones son contratados por un misterioso sujeto para que vayan a una casa abandonada y encuentren...

    Director: Tyler Gillett

    Género: FULL 1080p Plateadas

    Actores: Tyler Gillett

Comentarios 6
  • JOHNSON2018 - 14 enero, 2018

    si se pudiera reducir de 6 a 7 seria bueno..talvez en un futuro.. gracias

    • Dpelis2 - 14 enero, 2018

      Si se le baja el peso perdera calidad! ya que con ese peso tiene la misma Calidad del Bluray! y la verdad que el Bluray no tiene muy bbuena calidad de imagen!

  • pepelepu - 25 noviembre, 2017

    La contraseña no funciona, niguna de las 2 ya las coloque y nada…no puedo extraer….ayuda por favor

  • sebas - 18 noviembre, 2017

    saldra en negra?? pesa demasiado en gris 🙁

    • Dpelis2 pelis2 - 19 noviembre, 2017

      Por lo pronto no! Saludos