El sótano del miedo (1991) Full 1080p Latino

964 vistas
1 estrella2 estrellas3 estrellas4 estrellas5 estrellas (2 votos, promedio: 5,00 de 5)
Cargando…

Información de El sótano del miedo (1991) Full 1080p Latino

Datos de la película

  • Calidad: Full 1080p
  • Audio: Español Latino DTS 2.0 BLURAY - Ingles DTS 2.0 BLURAY
  • Subtitulos: Español Latino PGS - Ingles PGS
  • Resolución: 1920x1080p
  • Formato: MKV
  • Codec: H.264
  • Encoder: Dracarys
  • Mediainfo: Clic para Mostrar Datos Ver
  • Format                                   : Matroska
    Format version                           : Version 4 / Version 2
    File size                                : 9.87 GiB
    Duration                                 : 1 h 41 min
    Overall bit rate                         : 13.9 Mb/s
    Movie name                               : CinemaniaHDD.net
    Encoded date                             : UTC 2018-09-13 02:04:51 / UTC 2018-09-11T05:35:21Z
    Writing application                      : mkvmerge v15.0.0 ('Duel with the Devil') 64-bit
    Writing library                          : libebml v1.3.5 + libmatroska v1.4.5 / Lavf57.7.2

    Video
    ID                                       : 1
    Format                                   : AVC
    Format/Info                              : Advanced Video Codec
    Format profile                           : High@L4.1
    Format settings                          : CABAC / 4 Ref Frames
    Format settings, CABAC                   : Yes
    Format settings, RefFrames               : 4 frames
    Codec ID                                 : V_MPEG4/ISO/AVC
    Duration                                 : 1 h 41 min
    Bit rate                                 : 11.3 Mb/s
    Width                                    : 1 920 pixels
    Height                                   : 1 080 pixels
    Display aspect ratio                     : 16:9
    Frame rate mode                          : Constant
    Frame rate                               : 23.976 (24000/1001) FPS
    Color space                              : YUV
    Chroma subsampling                       : 4:2:0
    Bit depth                                : 8 bits
    Scan type                                : Progressive
    Bits/(Pixel*Frame)                       : 0.227
    Stream size                              : 8.05 GiB (82%)
    Title                                    : El sótano del miedo (1991) Full 1080p Latino
    Writing library                          : x264 core 148 r2708 86b7198
    Encoding settings                        : cabac=1 / ref=4 / deblock=1:0:0 / analyse=0x3:0x133 / me=esa / subme=10 / psy=1 / psy_rd=1.00:0.00 / mixed_ref=1 / me_range=24 / chroma_me=1 / trellis=2 / 8x8dct=1 / cqm=0 / deadzone=21,11 / fast_pskip=1 / chroma_qp_offset=-2 / threads=34 / lookahead_threads=5 / sliced_threads=0 / nr=0 / decimate=1 / interlaced=0 / bluray_compat=0 / constrained_intra=0 / bframes=8 / b_pyramid=2 / b_adapt=2 / b_bias=0 / direct=3 / weightb=1 / open_gop=0 / weightp=2 / keyint=240 / keyint_min=24 / scenecut=40 / intra_refresh=0 / rc_lookahead=60 / rc=crf / mbtree=1 / crf=20.0 / qcomp=0.60 / qpmin=0 / qpmax=69 / qpstep=4 / vbv_maxrate=62500 / vbv_bufsize=78125 / crf_max=0.0 / nal_hrd=none / filler=0 / ip_ratio=1.40 / aq=1:1.00
    Language                                 : English
    Default                                  : Yes
    Forced                                   : No
    Color range                              : Limited
    Color primaries                          : BT.709
    Transfer characteristics                 : BT.709
    Matrix coefficients                      : BT.709
    Statistics Tags Issue                    : mkvmerge v15.0.0 ('Duel with the Devil') 64-bit 2018-09-13 02:04:51 / mkvmerge v15.0.0 ('Duel with the Devil') 64-bit 2018-09-13 02:04:51 / UTC 2018-09-11T05:35:21Z
    FromStats_BitRate                        : 11559992
    FromStats_Duration                       : 01:41:56.986000000
    FromStats_FrameCount                     : 146661
    FromStats_StreamSize                     : 8839039042

    Audio #1
    ID                                       : 2
    Format                                   : DTS
    Format/Info                              : Digital Theater Systems
    Mode                                     : 16
    Format settings, Endianness              : Big
    Codec ID                                 : A_DTS
    Duration                                 : 1 h 41 min
    Bit rate mode                            : Constant
    Bit rate                                 : 768 kb/s
    Channel(s)                               : 2 channels
    Channel positions                        : Front: L R
    Sampling rate                            : 48.0 kHz
    Frame rate                               : 93.750 FPS (512 SPF)
    Bit depth                                : 24 bits
    Compression mode                         : Lossy
    Stream size                              : 560 MiB (6%)
    Language                                 : Spanish
    Default                                  : Yes
    Forced                                   : No
    Statistics Tags Issue                    : mkvmerge v15.0.0 ('Duel with the Devil') 64-bit 2018-09-13 02:04:51 / mkvmerge v15.0.0 ('Duel with the Devil') 64-bit 2018-09-13 02:04:51 / UTC 2018-09-11T05:35:21Z
    FromStats_BitRate                        : 767999
    FromStats_Duration                       : 01:41:56.982000000
    FromStats_FrameCount                     : 573467
    FromStats_StreamSize                     : 587230208

    Audio #2
    ID                                       : 3
    Format                                   : DTS
    Format/Info                              : Digital Theater Systems
    Mode                                     : 16
    Format settings, Endianness              : Big
    Codec ID                                 : A_DTS
    Duration                                 : 1 h 41 min
    Bit rate mode                            : Constant
    Bit rate                                 : 1 509 kb/s
    Channel(s)                               : 2 channels
    Channel positions                        : Front: L R
    Sampling rate                            : 48.0 kHz
    Frame rate                               : 93.750 FPS (512 SPF)
    Bit depth                                : 24 bits
    Compression mode                         : Lossy
    Stream size                              : 1.07 GiB (11%)
    Language                                 : English
    Default                                  : No
    Forced                                   : No
    Statistics Tags Issue                    : mkvmerge v15.0.0 ('Duel with the Devil') 64-bit 2018-09-13 02:04:51 / mkvmerge v15.0.0 ('Duel with the Devil') 64-bit 2018-09-13 02:04:51 / UTC 2018-09-11T05:35:21Z
    FromStats_BitRate                        : 1508999
    FromStats_Duration                       : 01:41:56.982000000
    FromStats_FrameCount                     : 573467
    FromStats_StreamSize                     : 1153815604

    Text #1
    ID                                       : 4
    Format                                   : PGS
    Muxing mode                              : zlib
    Codec ID                                 : S_HDMV/PGS
    Codec ID/Info                            : Picture based subtitle format used on BDs/HD-DVDs
    Language                                 : English
    Default                                  : No
    Forced                                   : No
    Statistics Tags Issue                    : mkvmerge v15.0.0 ('Duel with the Devil') 64-bit 2018-09-13 02:04:51 / mkvmerge v15.0.0 ('Duel with the Devil') 64-bit 2018-09-13 02:04:51 / UTC 2018-09-11T05:35:21Z
    FromStats_BitRate                        : 35327
    FromStats_Duration                       : 01:41:07.228000000
    FromStats_FrameCount                     : 2476
    FromStats_StreamSize                     : 26792836

    Text #2
    ID                                       : 5
    Format                                   : PGS
    Muxing mode                              : zlib
    Codec ID                                 : S_HDMV/PGS
    Codec ID/Info                            : Picture based subtitle format used on BDs/HD-DVDs
    Language                                 : Spanish
    Default                                  : No
    Forced                                   : No
    Statistics Tags Issue                    : mkvmerge v15.0.0 ('Duel with the Devil') 64-bit 2018-09-13 02:04:51 / mkvmerge v15.0.0 ('Duel with the Devil') 64-bit 2018-09-13 02:04:51 / UTC 2018-09-11T05:35:21Z
    FromStats_BitRate                        : 26215
    FromStats_Duration                       : 01:36:55.184000000
    FromStats_FrameCount                     : 1680
    FromStats_StreamSize                     : 19055715

    Menu
    00:00:00.000                             : :Chapter 1
    00:05:16.983                             : :Chapter 2
    00:11:31.232                             : :Chapter 3
    00:16:12.221                             : :Chapter 4
    00:22:10.162                             : :Chapter 5
    00:26:25.250                             : :Chapter 6
    00:34:18.932                             : :Chapter 7
    00:41:25.858                             : :Chapter 8
    00:47:24.258                             : :Chapter 9
    00:52:10.336                             : :Chapter 10
    00:57:08.383                             : :Chapter 11
    01:00:07.562                             : :Chapter 12
    01:06:09.591                             : :Chapter 13
    01:11:16.773                             : :Chapter 14
    01:16:05.811                             : :Chapter 15
    01:23:38.222                             : :Chapter 16
    01:29:38.999                             : :Chapter 17
    01:38:22.522                             : :Chapter 18

  • Peso: 9.87 GiB

Sinopsis

Atrapado en el interior de una casa fortificada que pertenece a una misteriosa pareja, un pobre muchacho se ve inmerso en una pesadilla. Tras percatarse de inmediato de la verdadera naturaleza de los macabros habitantes de la casa, el chico se enfrenta a sádicos dispositivos de seguridad, se hace amigo de una chica esquiva y maltratada, y tratará de descubrir el secreto de las criaturas ocultas en las profundidades de la casa.

Ficha técnica

Video trailer de la película

Enlaces de descarga

Rip de Bluray

Descargar El sótano del miedo (1991) Full 1080p Latino




Aportes de DPeliculasHDmega la pass es:dpeliculashdmega.org Aportes de CinemaniaHD la pass es:cinemaniahdd.com

Películas relacionadas

  • Fahrenheit 451 (2018) 1080p Latino

    2018
    Fahrenheit 451 (2018) 1080p Latino

    0.0 1h 36m 2018

    Michael B. Jordan y Michael Shannon protagonizan esta adaptación de HBO de la clásica novela distópica...

    Director: Ramin Bahrani

    Género: 1080p Portada Negra

    Actores: Tim Post

  • Mary Poppins (1964) Full 1080p Latino

    1964
    Mary Poppins (1964) Full 1080p Latino

    5.0 2h 19m 1964

    Reinado de Eduardo VII (1901-1910). Una familia inglesa formada por un padre banquero, una madre sufraguista...

    Director: Robert Stevenson

    Género: Comedia

    Actores: Reta Shaw

  • Siberia (2018) Full 1080p Subtitulado

    2018
    Siberia (2018) Full 1080p Subtitulado

    0.0 1h 44m 2018

    Cuando el socio ruso de un tratante de diamantes norteamericano (Keanu Reaves) desaparece, éste viaja...

    Director: Matthew Ross

    Género: Crimen

    Actores: Vladimir Shklyar

  • Man on a Ledge (2012) Full 1080p Latino

    2012
    Man on a Ledge (2012) Full 1080p Latino

    5.0 1 h 42 min 2012

    Nick Cassidy (Sam Worthington), un antiguo agente de policía, se escapa de la cárcel y se dirige al...

    Director: Melissa Kalbfus

    Género: Acción

    Actores: William Sadler

Comentarios 0