El robo perfecto (2018) Full 1080p Subtitulado

1.734 vistas
1 estrella2 estrellas3 estrellas4 estrellas5 estrellas (2 votos, promedio: 5,00 de 5)
Cargando…

Información de El robo perfecto (2018) Full 1080p Subtitulado

Datos de la película

  • Calidad: Full 1080p
  • Audio: Ingles DTS 5.1 BLURAY
  • Subtitulos: Español Latino PGS - Ingles PGS
  • Resolución: 1920x1080p
  • Formato: MKV
  • Codec: H.264
  • Encoder: Dracarys
  • Mediainfo: Clic para Mostrar Datos Ver
  • Format                                   : Matroska
    Format version                           : Version 4 / Version 2
    File size                                : 7.18 GiB
    Duration                                 : 2 h 28 min
    Overall bit rate                         : 6 908 kb/s
    Movie name                               : CinemaniaHDD.com
    Encoded date                             : UTC 2018-05-04 02:19:43 / UTC 2018-05-03T20:12:40Z
    Writing application                      : mkvmerge v15.0.0 ('Duel with the Devil') 64-bit
    Writing library                          : libebml v1.3.5 + libmatroska v1.4.5 / Lavf57.7.2

    Video
    ID                                       : 1
    Format                                   : AVC
    Format/Info                              : Advanced Video Codec
    Format profile                           : High@L4.1
    Format settings                          : CABAC / 4 Ref Frames
    Format settings, CABAC                   : Yes
    Format settings, RefFrames               : 4 frames
    Codec ID                                 : V_MPEG4/ISO/AVC
    Duration                                 : 2 h 28 min
    Bit rate                                 : 5 261 kb/s
    Width                                    : 1 920 pixels
    Height                                   : 1 080 pixels
    Display aspect ratio                     : 16:9
    Frame rate mode                          : Constant
    Frame rate                               : 23.976 (24000/1001) FPS
    Color space                              : YUV
    Chroma subsampling                       : 4:2:0
    Bit depth                                : 8 bits
    Scan type                                : Progressive
    Bits/(Pixel*Frame)                       : 0.106
    Stream size                              : 5.47 GiB (76%)
    Title                                    : El robo perfecto (2018) Full 1080p Subtitulado
    Writing library                          : x264 core 148 r2708 86b7198
    Encoding settings                        : cabac=1 / ref=4 / deblock=1:0:0 / analyse=0x3:0x133 / me=esa / subme=10 / psy=1 / psy_rd=1.00:0.00 / mixed_ref=1 / me_range=24 / chroma_me=1 / trellis=2 / 8x8dct=1 / cqm=0 / deadzone=21,11 / fast_pskip=1 / chroma_qp_offset=-2 / threads=34 / lookahead_threads=5 / sliced_threads=0 / nr=0 / decimate=1 / interlaced=0 / bluray_compat=0 / constrained_intra=0 / bframes=8 / b_pyramid=2 / b_adapt=2 / b_bias=0 / direct=3 / weightb=1 / open_gop=0 / weightp=2 / keyint=240 / keyint_min=24 / scenecut=40 / intra_refresh=0 / rc_lookahead=60 / rc=crf / mbtree=1 / crf=20.0 / qcomp=0.60 / qpmin=0 / qpmax=69 / qpstep=4 / vbv_maxrate=62500 / vbv_bufsize=78125 / crf_max=0.0 / nal_hrd=none / filler=0 / ip_ratio=1.40 / aq=1:1.00
    Language                                 : English
    Default                                  : Yes
    Forced                                   : No
    Color range                              : Limited
    Color primaries                          : BT.709
    Transfer characteristics                 : BT.709
    Matrix coefficients                      : BT.709
    Statistics Tags Issue                    : mkvmerge v15.0.0 ('Duel with the Devil') 64-bit 2018-05-04 02:19:43 / mkvmerge v15.0.0 ('Duel with the Devil') 64-bit 2018-05-04 02:19:43 / UTC 2018-05-03T20:12:40Z
    FromStats_BitRate                        : 5378668
    FromStats_Duration                       : 02:28:49.671000000
    FromStats_FrameCount                     : 214098
    FromStats_StreamSize                     : 6003718039

    Audio
    ID                                       : 2
    Format                                   : DTS
    Format/Info                              : Digital Theater Systems
    Mode                                     : 16
    Format settings, Endianness              : Big
    Codec ID                                 : A_DTS
    Duration                                 : 2 h 28 min
    Bit rate mode                            : Constant
    Bit rate                                 : 1 509 kb/s
    Channel(s)                               : 6 channels
    Channel positions                        : Front: L C R, Side: L R, LFE
    Sampling rate                            : 48.0 kHz
    Frame rate                               : 93.750 FPS (512 SPF)
    Bit depth                                : 24 bits
    Compression mode                         : Lossy
    Stream size                              : 1.57 GiB (22%)
    Language                                 : English
    Default                                  : Yes
    Forced                                   : No
    Statistics Tags Issue                    : mkvmerge v15.0.0 ('Duel with the Devil') 64-bit 2018-05-04 02:19:43 / mkvmerge v15.0.0 ('Duel with the Devil') 64-bit 2018-05-04 02:19:43 / UTC 2018-05-03T20:12:40Z
    FromStats_BitRate                        : 1508999
    FromStats_Duration                       : 02:28:49.686000000
    FromStats_FrameCount                     : 837158
    FromStats_StreamSize                     : 1684361896

    Text #1
    ID                                       : 3
    Format                                   : PGS
    Muxing mode                              : zlib
    Codec ID                                 : S_HDMV/PGS
    Codec ID/Info                            : Picture based subtitle format used on BDs/HD-DVDs
    Language                                 : English
    Default                                  : No
    Forced                                   : No
    Statistics Tags Issue                    : mkvmerge v15.0.0 ('Duel with the Devil') 64-bit 2018-05-04 02:19:43 / mkvmerge v15.0.0 ('Duel with the Devil') 64-bit 2018-05-04 02:19:43 / UTC 2018-05-03T20:12:40Z
    FromStats_BitRate                        : 33381
    FromStats_Duration                       : 02:20:27.360000000
    FromStats_FrameCount                     : 3428
    FromStats_StreamSize                     : 35165206

    Text #2
    ID                                       : 4
    Format                                   : PGS
    Muxing mode                              : zlib
    Codec ID                                 : S_HDMV/PGS
    Codec ID/Info                            : Picture based subtitle format used on BDs/HD-DVDs
    Language                                 : Spanish
    Default                                  : Yes
    Forced                                   : Yes
    Statistics Tags Issue                    : mkvmerge v15.0.0 ('Duel with the Devil') 64-bit 2018-05-04 02:19:43 / mkvmerge v15.0.0 ('Duel with the Devil') 64-bit 2018-05-04 02:19:43 / UTC 2018-05-03T20:12:40Z
    FromStats_BitRate                        : 24805
    FromStats_Duration                       : 02:27:50.803000000
    FromStats_FrameCount                     : 3071
    FromStats_StreamSize                     : 27505238

    Menu
    00:00:00.000                             : :Chapter 1
    00:09:38.870                             : :Chapter 2
    00:17:31.968                             : :Chapter 3
    00:24:03.776                             : :Chapter 4
    00:30:30.454                             : :Chapter 5
    00:43:48.167                             : :Chapter 6
    00:49:55.075                             : :Chapter 7
    00:58:58.368                             : :Chapter 8
    01:05:05.193                             : :Chapter 9
    01:10:42.864                             : :Chapter 10
    01:16:20.451                             : :Chapter 11
    01:25:11.607                             : :Chapter 12
    01:29:54.639                             : :Chapter 13
    01:35:50.995                             : :Chapter 14
    01:40:40.034                             : :Chapter 15
    01:50:22.658                             : :Chapter 16
    01:58:30.854                             : :Chapter 17
    02:05:00.034                             : :Chapter 18
    02:14:28.102                             : :Chapter 19
    02:22:15.444                             : :Chapter 20

  • Peso: 7.18 GiB

Sinopsis

Todos los días, el banco de la Reserva Federal de Los Ángeles saca de la circulación 120 millones de dólares en efectivo. Un grupo de experimentados ladrones planea su gran atraco final: robar esos 120 millones, pero el departamento del Sheriff de Los Ángeles, la brigada más temida de la ciudad liderada por ‘El gran Nick’ (Gerard Butler), no está dispuesto a ponérselo fácil.

Ficha técnica

Video trailer de la película

Enlaces de descarga

Rip de Bluray

Descargar El robo perfecto (2018) Full 1080p Subtitulado




Aportes de DPeliculasHDmega la pass es:dpeliculashdmega.org Aportes de CinemaniaHD la pass es:cinemaniahdd.com

Películas relacionadas

  • Lady Bird (2017) Full 1080p Latino

    2017
    Lady Bird (2017) Full 1080p Latino

    5.0 1h 34m 2017

    Sacramento, California, año 2002. Una joven llamada Christine McPherson (Saoirse Ronan), apodada como...

    Director: Jonas Spaccarotelli

    Género: Comedia

    Actores: Tracy Letts

  • Plan de escape (2013) Full 1080p Latino

    2013
    Plan de escape (2013) Full 1080p Latino

    3.0 1h 56m 2013

    El experto en seguridad Ray Breslin prueba sus teorías poco convencionales en diseño de prisiones elaborando...

    Director: Mikael Håfström

    Género: Acción

    Actores: Vinnie Jones

Comentarios 0