El rey león 3 Hakuna Matata (2004) Full 1080p Latino

859 vistas
1 estrella2 estrellas3 estrellas4 estrellas5 estrellas (4 votos, promedio: 4,00 de 5)
Cargando…

Información de El rey león 3 Hakuna Matata (2004) Full 1080p Latino

Datos de la película

  • Calidad: Full 1080p
  • Audio: Español Latino AC3 5.1 BLURAY - Ingles DTS 5.1 BLURAY
  • Subtitulos: Español Latino PGS - Ingles PGS
  • Resolución: 1920x1080p
  • Formato: MKV
  • Codec: H.264
  • Encoder: Dracarys
  • Mediainfo: Clic para Mostrar Datos Ver
  • Format                                   : Matroska
    Format version                           : Version 4 / Version 2
    File size                                : 2.71 GiB
    Duration                                 : 1 h 16 min
    Overall bit rate                         : 5 091 kb/s
    Movie name                               : CinemaniaHDD.com
    Encoded date                             : UTC 2018-05-17 18:21:06 / UTC 2018-05-17T06:13:17Z
    Writing application                      : mkvmerge v15.0.0 ('Duel with the Devil') 64-bit
    Writing library                          : libebml v1.3.5 + libmatroska v1.4.5 / Lavf57.7.2

    Video
    ID                                       : 1
    Format                                   : AVC
    Format/Info                              : Advanced Video Codec
    Format profile                           : High@L4.1
    Format settings                          : CABAC / 4 Ref Frames
    Format settings, CABAC                   : Yes
    Format settings, RefFrames               : 4 frames
    Codec ID                                 : V_MPEG4/ISO/AVC
    Duration                                 : 1 h 16 min
    Bit rate                                 : 2 840 kb/s
    Width                                    : 1 920 pixels
    Height                                   : 1 080 pixels
    Display aspect ratio                     : 16:9
    Frame rate mode                          : Constant
    Frame rate                               : 23.976 (24000/1001) FPS
    Color space                              : YUV
    Chroma subsampling                       : 4:2:0
    Bit depth                                : 8 bits
    Scan type                                : Progressive
    Bits/(Pixel*Frame)                       : 0.057
    Stream size                              : 1.51 GiB (56%)
    Title                                    : El rey león 3 Hakuna Matata (2004) Full 1080p Latino
    Writing library                          : x264 core 148 r2708 86b7198
    Encoding settings                        : cabac=1 / ref=4 / deblock=1:0:0 / analyse=0x3:0x133 / me=esa / subme=9 / psy=1 / psy_rd=1.00:0.00 / mixed_ref=1 / me_range=16 / chroma_me=1 / trellis=2 / 8x8dct=1 / cqm=0 / deadzone=21,11 / fast_pskip=1 / chroma_qp_offset=-2 / threads=34 / lookahead_threads=2 / sliced_threads=0 / nr=0 / decimate=1 / interlaced=0 / bluray_compat=0 / constrained_intra=0 / bframes=3 / b_pyramid=2 / b_adapt=2 / b_bias=0 / direct=3 / weightb=1 / open_gop=0 / weightp=2 / keyint=240 / keyint_min=24 / scenecut=40 / intra_refresh=0 / rc_lookahead=60 / rc=crf / mbtree=1 / crf=20.0 / qcomp=0.60 / qpmin=0 / qpmax=69 / qpstep=4 / vbv_maxrate=62500 / vbv_bufsize=78125 / crf_max=0.0 / nal_hrd=none / filler=0 / ip_ratio=1.40 / aq=1:1.00
    Language                                 : English
    Default                                  : Yes
    Forced                                   : No
    Color range                              : Limited
    Color primaries                          : BT.709
    Transfer characteristics                 : BT.709
    Matrix coefficients                      : BT.709
    Statistics Tags Issue                    : mkvmerge v15.0.0 ('Duel with the Devil') 64-bit 2018-05-17 18:21:06 / mkvmerge v15.0.0 ('Duel with the Devil') 64-bit 2018-05-17 18:21:06 / UTC 2018-05-17T06:13:17Z
    FromStats_BitRate                        : 2917872
    FromStats_Duration                       : 01:16:14.612000000
    FromStats_FrameCount                     : 109681
    FromStats_StreamSize                     : 1668516671

    Audio #1
    ID                                       : 2
    Format                                   : AC-3
    Format/Info                              : Audio Coding 3
    Format settings, Endianness              : Big
    Codec ID                                 : A_AC3
    Duration                                 : 1 h 16 min
    Bit rate mode                            : Constant
    Bit rate                                 : 640 kb/s
    Channel(s)                               : 6 channels
    Channel positions                        : Front: L C R, Side: L R, LFE
    Sampling rate                            : 48.0 kHz
    Frame rate                               : 31.250 FPS (1536 SPF)
    Bit depth                                : 16 bits
    Compression mode                         : Lossy
    Stream size                              : 349 MiB (13%)
    Language                                 : Spanish
    Service kind                             : Complete Main
    Default                                  : Yes
    Forced                                   : No
    Statistics Tags Issue                    : mkvmerge v15.0.0 ('Duel with the Devil') 64-bit 2018-05-17 18:21:06 / mkvmerge v15.0.0 ('Duel with the Devil') 64-bit 2018-05-17 18:21:06 / UTC 2018-05-17T06:13:17Z
    FromStats_BitRate                        : 640000
    FromStats_Duration                       : 01:16:14.624000000
    FromStats_FrameCount                     : 142957
    FromStats_StreamSize                     : 365969920

    Audio #2
    ID                                       : 3
    Format                                   : DTS
    Format/Info                              : Digital Theater Systems
    Mode                                     : 16
    Format settings, Endianness              : Big
    Codec ID                                 : A_DTS
    Duration                                 : 1 h 16 min
    Bit rate mode                            : Constant
    Bit rate                                 : 1 509 kb/s
    Channel(s)                               : 6 channels
    Channel positions                        : Front: L C R, Side: L R, LFE
    Sampling rate                            : 48.0 kHz
    Frame rate                               : 93.750 FPS (512 SPF)
    Bit depth                                : 24 bits
    Compression mode                         : Lossy
    Stream size                              : 823 MiB (30%)
    Language                                 : English
    Default                                  : No
    Forced                                   : No
    Statistics Tags Issue                    : mkvmerge v15.0.0 ('Duel with the Devil') 64-bit 2018-05-17 18:21:06 / mkvmerge v15.0.0 ('Duel with the Devil') 64-bit 2018-05-17 18:21:06 / UTC 2018-05-17T06:13:17Z
    FromStats_BitRate                        : 1508999
    FromStats_Duration                       : 01:16:14.603000000
    FromStats_FrameCount                     : 428869
    FromStats_StreamSize                     : 862884428

    Text #1
    ID                                       : 4
    Format                                   : PGS
    Muxing mode                              : zlib
    Codec ID                                 : S_HDMV/PGS
    Codec ID/Info                            : Picture based subtitle format used on BDs/HD-DVDs
    Title                                    : Forzados
    Language                                 : Spanish
    Default                                  : Yes
    Forced                                   : Yes
    Statistics Tags Issue                    : mkvmerge v15.0.0 ('Duel with the Devil') 64-bit 2018-05-17 18:21:06 / mkvmerge v15.0.0 ('Duel with the Devil') 64-bit 2018-05-17 18:21:06 / UTC 2018-05-17T06:13:17Z
    FromStats_BitRate                        : 29143
    FromStats_Duration                       : 00:00:03.212000000
    FromStats_FrameCount                     : 2
    FromStats_StreamSize                     : 11701

    Text #2
    ID                                       : 5
    Format                                   : PGS
    Muxing mode                              : zlib
    Codec ID                                 : S_HDMV/PGS
    Codec ID/Info                            : Picture based subtitle format used on BDs/HD-DVDs
    Language                                 : Spanish
    Default                                  : No
    Forced                                   : No
    Statistics Tags Issue                    : mkvmerge v15.0.0 ('Duel with the Devil') 64-bit 2018-05-17 18:21:06 / mkvmerge v15.0.0 ('Duel with the Devil') 64-bit 2018-05-17 18:21:06 / UTC 2018-05-17T06:13:17Z
    FromStats_BitRate                        : 35321
    FromStats_Duration                       : 01:09:49.435000000
    FromStats_FrameCount                     : 1758
    FromStats_StreamSize                     : 18497107

    Text #3
    ID                                       : 6
    Format                                   : PGS
    Muxing mode                              : zlib
    Codec ID                                 : S_HDMV/PGS
    Codec ID/Info                            : Picture based subtitle format used on BDs/HD-DVDs
    Language                                 : English
    Default                                  : No
    Forced                                   : No
    Statistics Tags Issue                    : mkvmerge v15.0.0 ('Duel with the Devil') 64-bit 2018-05-17 18:21:06 / mkvmerge v15.0.0 ('Duel with the Devil') 64-bit 2018-05-17 18:21:06 / UTC 2018-05-17T06:13:17Z
    FromStats_BitRate                        : 34594
    FromStats_Duration                       : 01:09:49.477000000
    FromStats_FrameCount                     : 1590
    FromStats_StreamSize                     : 18116397

    Menu
    00:00:00.000                             : :Chapter 1
    00:01:56.033                             : :Chapter 2
    00:08:22.544                             : :Chapter 3
    00:12:28.164                             : :Chapter 4
    00:17:00.561                             : :Chapter 5
    00:22:34.270                             : :Chapter 6
    00:29:18.882                             : :Chapter 7
    00:34:20.559                             : :Chapter 8
    00:38:19.005                             : :Chapter 9
    00:40:21.628                             : :Chapter 10
    00:45:33.022                             : :Chapter 11
    00:50:09.423                             : :Chapter 12
    00:54:52.456                             : :Chapter 13
    00:59:02.873                             : :Chapter 14
    01:06:18.057                             : :Chapter 15
    01:10:24.512                             : :Chapter 16

  • Peso: 2.71 GiB

Sinopsis

La diversión reina en esta nueva película en al que Timón y su simpático amigo Pumba son los grandes héroes de la Sabana. El Rey León 3 nos traslada al pasado, antes de que comenzase la historia de Simba, e incluso mucho más atrás. En esta nueva comedia de aventuras, Timón y Pumba te descubrirán sus orígenes, cuándo se conocieron y cómo ayudaron a Simba a salvar el Seregeti. Su historia incluye algunos de los grandes momentos de El Rey León, que ahora resultarán un poco diferentes desde su punto de vista. Por ejemplo, os sorprenderá conocer la verdad sobre cómo se desarrolló el trascendental momento en el que Simba fue presentado al reino animal.

Ficha técnica

Video trailer de la película

Enlaces de descarga

Rip de Bluray

Descargar El rey león 3 Hakuna Matata (2004) Full 1080p Latino




Aportes de DPeliculasHDmega la pass es:dpeliculashdmega.org Aportes de CinemaniaHD la pass es:cinemaniahdd.com

Películas relacionadas

  • Los Gustos y Los Colores (2018) NF 1080p Latino

    2018
    Los Gustos y Los Colores (2018) NF 1080p Latino

    0.0 1h 35m 2018

    Justo cuando Simone se anima a contarle a su conservadora familia judía que es lesbiana, se siente atraída...

    Director: Myriam Aziza

    Género: Comedia

    Actores: Stéphane Debac

  • The lovers (2017) 1080p Latino

    2017
    The lovers (2017) 1080p Latino

    1.0 1h 37m 2017

    Mary y Michael forman un matrimonio de mediana edad que tras años de rutina ambos tienen un amante,...

    Director: Azazel Jacobs

    Género: 1080p Portada Negra

    Actores: Tyler Ross

  • Lady Bird (2017) Full 1080p Latino

    2017
    Lady Bird (2017) Full 1080p Latino

    5.0 1h 34m 2017

    Sacramento, California, año 2002. Una joven llamada Christine McPherson (Saoirse Ronan), apodada como...

    Director: Jonas Spaccarotelli

    Género: Comedia

    Actores: Tracy Letts

  • Plan de escape (2013) Full 1080p Latino

    2013
    Plan de escape (2013) Full 1080p Latino

    3.0 1h 56m 2013

    El experto en seguridad Ray Breslin prueba sus teorías poco convencionales en diseño de prisiones elaborando...

    Director: Mikael Håfström

    Género: Acción

    Actores: Vinnie Jones

  • No me las toquen (2018) 1080p Latino

    2018
    No me las toquen (2018) 1080p Latino

    3.0 1h 42m 2018

    Cuando una madre y dos padres descubren que sus respectivas hijas han hecho un pacto para perder la virginidad...

    Director: Kay Cannon

    Género: 1080p Portada Negra

    Actores: T.C. Carter

Comentarios 0