El quinto elemento (1997) [Open Matte] WEB-DL 1080p Latino

1.696 vistas
1 estrella2 estrellas3 estrellas4 estrellas5 estrellas (3 votos, promedio: 5,00 de 5)
Cargando…

Información de El quinto elemento (1997) [Open Matte] WEB-DL 1080p Latino

Datos de la película

  • Calidad: WEBDL
  • Audio: Español Latino AC3 5.1 BLURAY - Ingles DTS 5.1 BLURAY
  • Subtitulos: Español Latino SRT- FORZADOS SRT
  • Resolución: 1920X1080p
  • Formato: MKV
  • Codec: H.264
  • Encoder: Dracarys
  • Mediainfo: Clic para Mostrar Datos Ver
  • Format                                   : Matroska
    Format version                           : Version 4 / Version 2
    File size                                : 12.7 GiB
    Duration                                 : 2 h 5 min
    Overall bit rate mode                    : Variable
    Overall bit rate                         : 14.4 Mb/s
    Movie name                               : CinemaniaHDD.com
    Encoded date                             : UTC 2018-01-28 19:41:02
    Writing application                      : mkvmerge v15.0.0 ('Duel with the Devil') 64-bit
    Writing library                          : libebml v1.3.5 + libmatroska v1.4.5

    Video
    ID                                       : 1
    Format                                   : AVC
    Format/Info                              : Advanced Video Codec
    Format profile                           : High@L4
    Format settings                          : CABAC / 4 Ref Frames
    Format settings, CABAC                   : Yes
    Format settings, RefFrames               : 4 frames
    Codec ID                                 : V_MPEG4/ISO/AVC
    Duration                                 : 2 h 5 min
    Bit rate mode                            : Variable
    Bit rate                                 : 12.3 Mb/s
    Maximum bit rate                         : 15.0 Mb/s
    Width                                    : 1 920 pixels
    Height                                   : 1 080 pixels
    Display aspect ratio                     : 16:9
    Frame rate mode                          : Constant
    Frame rate                               : 23.976 (24000/1001) FPS
    Color space                              : YUV
    Chroma subsampling                       : 4:2:0
    Bit depth                                : 8 bits
    Scan type                                : Progressive
    Bits/(Pixel*Frame)                       : 0.247
    Stream size                              : 10.8 GiB (85%)
    Title                                    : El quinto elemento (1997) [Open Matte] WEB-DL 1080p Latino
    Language                                 : English
    Default                                  : Yes
    Forced                                   : No
    Color range                              : Limited
    Color primaries                          : BT.709
    Transfer characteristics                 : BT.709
    Matrix coefficients                      : BT.709

    Audio #1
    ID                                       : 2
    Format                                   : AC-3
    Format/Info                              : Audio Coding 3
    Format settings, Endianness              : Big
    Codec ID                                 : A_AC3
    Duration                                 : 2 h 5 min
    Bit rate mode                            : Constant
    Bit rate                                 : 640 kb/s
    Channel(s)                               : 6 channels
    Channel positions                        : Front: L C R, Side: L R, LFE
    Sampling rate                            : 48.0 kHz
    Frame rate                               : 31.250 FPS (1536 SPF)
    Bit depth                                : 16 bits
    Compression mode                         : Lossy
    Delay relative to video                  : 12 ms
    Stream size                              : 576 MiB (4%)
    Language                                 : Spanish
    Service kind                             : Complete Main
    Default                                  : Yes
    Forced                                   : No

    Audio #2
    ID                                       : 3
    Format                                   : DTS
    Format/Info                              : Digital Theater Systems
    Mode                                     : 16
    Format settings, Endianness              : Big
    Codec ID                                 : A_DTS
    Duration                                 : 2 h 5 min
    Bit rate mode                            : Constant
    Bit rate                                 : 1 510 kb/s
    Channel(s)                               : 6 channels
    Channel positions                        : Front: L C R, Side: L R, LFE
    Sampling rate                            : 48.0 kHz
    Frame rate                               : 93.750 FPS (512 SPF)
    Bit depth                                : 24 bits
    Compression mode                         : Lossy
    Delay relative to video                  : 5 ms
    Stream size                              : 1.33 GiB (10%)
    Language                                 : English
    Default                                  : No
    Forced                                   : No

    Text #1
    ID                                       : 4
    Format                                   : UTF-8
    Codec ID                                 : S_TEXT/UTF8
    Codec ID/Info                            : UTF-8 Plain Text
    Duration                                 : 1 h 47 min
    Bit rate                                 : 0 b/s
    Count of elements                        : 24
    Stream size                              : 513 Bytes (0%)
    Title                                    : Forzados
    Language                                 : Spanish
    Default                                  : Yes
    Forced                                   : Yes

    Text #2
    ID                                       : 5
    Format                                   : UTF-8
    Codec ID                                 : S_TEXT/UTF8
    Codec ID/Info                            : UTF-8 Plain Text
    Duration                                 : 1 h 59 min
    Bit rate                                 : 50 b/s
    Count of elements                        : 1579
    Stream size                              : 44.6 KiB (0%)
    Language                                 : Spanish
    Default                                  : No
    Forced                                   : No

  • Peso: 12.7 GiB

Sinopsis

Cada 5.000 años se abre una puerta entre las dimensiones. En una dimensión existe el Universo y la vida. En la otra dimensión existe un elemento que no está hecho ni de tierra, ni de fuego, ni de aire, ni de agua, sino que es una anti-energía, la anti-vida: es el quinto elemento.

Ficha técnica

Video trailer de la película

Enlaces de descarga

Rip de Bluray

Descargar El quinto elemento (1997) [Open Matte] WEB-DL 1080p Latino




Aportes de DPeliculasHDmega la pass es:dpeliculashdmega.org Aportes de CinemaniaHD la pass es:cinemaniahdd.com

Películas relacionadas

  • Fahrenheit 451 (2018) 1080p Latino

    2018
    Fahrenheit 451 (2018) 1080p Latino

    0.0 1h 36m 2018

    Michael B. Jordan y Michael Shannon protagonizan esta adaptación de HBO de la clásica novela distópica...

    Director: Ramin Bahrani

    Género: 1080p Portada Negra

    Actores: Tim Post

  • Mary Poppins (1964) Full 1080p Latino

    1964
    Mary Poppins (1964) Full 1080p Latino

    5.0 2h 19m 1964

    Reinado de Eduardo VII (1901-1910). Una familia inglesa formada por un padre banquero, una madre sufraguista...

    Director: Robert Stevenson

    Género: Comedia

    Actores: Reta Shaw

  • Siberia (2018) Full 1080p Subtitulado

    2018
    Siberia (2018) Full 1080p Subtitulado

    0.0 1h 44m 2018

    Cuando el socio ruso de un tratante de diamantes norteamericano (Keanu Reaves) desaparece, éste viaja...

    Director: Matthew Ross

    Género: Crimen

    Actores: Vladimir Shklyar

  • Man on a Ledge (2012) Full 1080p Latino

    2012
    Man on a Ledge (2012) Full 1080p Latino

    5.0 1 h 42 min 2012

    Nick Cassidy (Sam Worthington), un antiguo agente de policía, se escapa de la cárcel y se dirige al...

    Director: Melissa Kalbfus

    Género: Acción

    Actores: William Sadler

Comentarios 12
  • john - 03 febrero, 2018

    Que lástima, no sabía que era eso de Open Matte y me demore mucho bajando esto, no me gusta eso de “pantalla Completa” pues se pierde mucho de la imagen a los lados y el doblaje no es el tradicional… Ojala algún día suban la normalita con franjas negras y voces tradicionales y los subtitulos en .SRT !

  • Benjamin Tucuman - 29 enero, 2018

    subiran el videos con el doblaje latino original.?? cuando saquen la version pesada claro.. no me hago la idea de estar viendo El Quinto Elemento al escuchar los nuevos doblajes…. en especial la de Ruby Rhod XD

    • Dracarys - 03 febrero, 2018

      Se Tratara se subir con Ambos doblajes

  • YIMI - 29 enero, 2018

    ESTA EXCELENTE LA VERSION OPEN MATTE, no hay nada mejor sin esas franjas negras, Muy buena pagina

  • areiza - 28 enero, 2018

    Mis respetos TOTALES!! sin duda alguna sorprenden cada vez mas con sus publicaciones, no tienen competencia alguna; excelente película y calidad, lastima que el link 1 de MEGA se encuentre caido

    • Dracarys - 28 enero, 2018

      Hola amigo. Resubidos todos los links de mega. Saludos

  • Aldair Jesus - 28 enero, 2018

    Mis respetos a todos ustedes, se empeñan mucho en traer peliculas en formato Open Matte.

  • oniiumo - 28 enero, 2018

    trae el doblaje original , y que es eso de open matte?

    • JOHNSON2018 - 29 enero, 2018

      Bueno resumiendo pantalla completa el termino actual que se maneja ahora en este siglo moderno que los lenguaje cambian, ya que ante se llamaban full screen

      • Benjamin Tucuman - 29 enero, 2018

        Full Screen no se le llamaba a los videos de aspecto 4:3 y Wide Screen a los videos de aspecto 16:9..???
        y a los otros con bordes negros k eran 16: ? 😕 … hahaha no recuerdo los numeros, pero si recuerdo k variaban otros eran letter box y no se k weas :v

      • piratebox - 31 enero, 2018

        Trae el doblaje original?