El padrino III (1990) Full 1080p Latino

660 vistas
1 estrella2 estrellas3 estrellas4 estrellas5 estrellas (5 votos, promedio: 3,40 de 5)
Cargando…

Información de El padrino III (1990) Full 1080p Latino

Datos de la película

  • Calidad: Full 1080p
  • Audio: Español Latino AC3 5.1 BLURAY - Ingles AC3 5.1 BLURAY
  • Subtitulos: Español Latino PGS - Ingles PGS
  • Resolución: 1920x1080p
  • Formato: MKV
  • Codec: H.264
  • Encoder: Dracarys
  • Mediainfo: Clic para Mostrar Datos Ver
  • Format                                   : Matroska
    Format version                           : Version 4 / Version 2
    File size                                : 22.8 GiB
    Duration                                 : 2 h 50 min
    Overall bit rate                         : 19.2 Mb/s
    Movie name                               : CinemaniaHDD.com
    Encoded date                             : UTC 2018-04-11 04:54:12 / UTC 2018-04-04T06:37:46Z
    Writing application                      : mkvmerge v15.0.0 ('Duel with the Devil') 64-bit
    Writing library                          : libebml v1.3.5 + libmatroska v1.4.5 / Lavf57.7.2

    Video
    ID                                       : 1
    Format                                   : AVC
    Format/Info                              : Advanced Video Codec
    Format profile                           : High@L4.1
    Format settings                          : CABAC / 4 Ref Frames
    Format settings, CABAC                   : Yes
    Format settings, RefFrames               : 4 frames
    Codec ID                                 : V_MPEG4/ISO/AVC
    Duration                                 : 2 h 50 min
    Bit rate                                 : 17.5 Mb/s
    Width                                    : 1 920 pixels
    Height                                   : 1 080 pixels
    Display aspect ratio                     : 16:9
    Frame rate mode                          : Constant
    Frame rate                               : 23.976 (24000/1001) FPS
    Color space                              : YUV
    Chroma subsampling                       : 4:2:0
    Bit depth                                : 8 bits
    Scan type                                : Progressive
    Bits/(Pixel*Frame)                       : 0.352
    Stream size                              : 20.8 GiB (91%)
    Title                                    : El padrino III (1990) Full 1080p Latino
    Writing library                          : x264 core 148 r2708 86b7198
    Encoding settings                        : cabac=1 / ref=4 / deblock=1:0:0 / analyse=0x3:0x133 / me=esa / subme=9 / psy=1 / psy_rd=1.00:0.00 / mixed_ref=1 / me_range=16 / chroma_me=1 / trellis=2 / 8x8dct=1 / cqm=0 / deadzone=21,11 / fast_pskip=1 / chroma_qp_offset=-2 / threads=34 / lookahead_threads=2 / sliced_threads=0 / nr=0 / decimate=1 / interlaced=0 / bluray_compat=0 / constrained_intra=0 / bframes=3 / b_pyramid=2 / b_adapt=2 / b_bias=0 / direct=3 / weightb=1 / open_gop=0 / weightp=2 / keyint=240 / keyint_min=24 / scenecut=40 / intra_refresh=0 / rc_lookahead=60 / rc=crf / mbtree=1 / crf=20.0 / qcomp=0.60 / qpmin=0 / qpmax=69 / qpstep=4 / vbv_maxrate=62500 / vbv_bufsize=78125 / crf_max=0.0 / nal_hrd=none / filler=0 / ip_ratio=1.40 / aq=1:1.00
    Language                                 : English
    Default                                  : Yes
    Forced                                   : No
    Color range                              : Limited
    Color primaries                          : BT.709
    Transfer characteristics                 : BT.709
    Matrix coefficients                      : BT.709
    Statistics Tags Issue                    : mkvmerge v15.0.0 ('Duel with the Devil') 64-bit 2018-04-11 04:54:12 / mkvmerge v15.0.0 ('Duel with the Devil') 64-bit 2018-04-11 04:54:12 / UTC 2018-04-04T06:37:46Z
    FromStats_BitRate                        : 17853906
    FromStats_Duration                       : 02:50:15.247000000
    FromStats_FrameCount                     : 244921
    FromStats_StreamSize                     : 22797758592

    Audio #1
    ID                                       : 2
    Format                                   : AC-3
    Format/Info                              : Audio Coding 3
    Format settings, Endianness              : Big
    Codec ID                                 : A_AC3
    Duration                                 : 2 h 50 min
    Bit rate mode                            : Constant
    Bit rate                                 : 640 kb/s
    Channel(s)                               : 6 channels
    Channel positions                        : Front: L C R, Side: L R, LFE
    Sampling rate                            : 48.0 kHz
    Frame rate                               : 31.250 FPS (1536 SPF)
    Bit depth                                : 16 bits
    Compression mode                         : Lossy
    Stream size                              : 779 MiB (3%)
    Language                                 : Spanish
    Service kind                             : Complete Main
    Default                                  : Yes
    Forced                                   : No
    Statistics Tags Issue                    : mkvmerge v15.0.0 ('Duel with the Devil') 64-bit 2018-04-11 04:54:12 / mkvmerge v15.0.0 ('Duel with the Devil') 64-bit 2018-04-11 04:54:12 / UTC 2018-04-04T06:37:46Z
    FromStats_BitRate                        : 640000
    FromStats_Duration                       : 02:50:15.232000000
    FromStats_FrameCount                     : 319226
    FromStats_StreamSize                     : 817218560

    Audio #2
    ID                                       : 3
    Format                                   : AC-3
    Format/Info                              : Audio Coding 3
    Format settings, Endianness              : Big
    Codec ID                                 : A_AC3
    Duration                                 : 2 h 50 min
    Bit rate mode                            : Constant
    Bit rate                                 : 640 kb/s
    Channel(s)                               : 6 channels
    Channel positions                        : Front: L C R, Side: L R, LFE
    Sampling rate                            : 48.0 kHz
    Frame rate                               : 31.250 FPS (1536 SPF)
    Bit depth                                : 16 bits
    Compression mode                         : Lossy
    Stream size                              : 779 MiB (3%)
    Language                                 : English
    Service kind                             : Complete Main
    Default                                  : No
    Forced                                   : No
    Statistics Tags Issue                    : mkvmerge v15.0.0 ('Duel with the Devil') 64-bit 2018-04-11 04:54:12 / mkvmerge v15.0.0 ('Duel with the Devil') 64-bit 2018-04-11 04:54:12 / UTC 2018-04-04T06:37:46Z
    FromStats_BitRate                        : 640000
    FromStats_Duration                       : 02:50:15.264000000
    FromStats_FrameCount                     : 319227
    FromStats_StreamSize                     : 817221120

    Text #1
    ID                                       : 4
    Format                                   : PGS
    Muxing mode                              : zlib
    Codec ID                                 : S_HDMV/PGS
    Codec ID/Info                            : Picture based subtitle format used on BDs/HD-DVDs
    Title                                    : Forzados
    Language                                 : Spanish
    Default                                  : Yes
    Forced                                   : Yes
    Statistics Tags Issue                    : mkvmerge v15.0.0 ('Duel with the Devil') 64-bit 2018-04-11 04:54:12 / mkvmerge v15.0.0 ('Duel with the Devil') 64-bit 2018-04-11 04:54:12 / UTC 2018-04-04T06:37:46Z
    FromStats_BitRate                        : 344
    FromStats_Duration                       : 01:15:35.911000000
    FromStats_FrameCount                     : 16
    FromStats_StreamSize                     : 195315

    Text #2
    ID                                       : 5
    Format                                   : PGS
    Muxing mode                              : zlib
    Codec ID                                 : S_HDMV/PGS
    Codec ID/Info                            : Picture based subtitle format used on BDs/HD-DVDs
    Language                                 : Spanish
    Default                                  : No
    Forced                                   : No
    Statistics Tags Issue                    : mkvmerge v15.0.0 ('Duel with the Devil') 64-bit 2018-04-11 04:54:12 / mkvmerge v15.0.0 ('Duel with the Devil') 64-bit 2018-04-11 04:54:12 / UTC 2018-04-04T06:37:46Z
    FromStats_BitRate                        : 36199
    FromStats_Duration                       : 02:38:36.850000000
    FromStats_FrameCount                     : 2650
    FromStats_StreamSize                     : 43063034

    Text #3
    ID                                       : 6
    Format                                   : PGS
    Muxing mode                              : zlib
    Codec ID                                 : S_HDMV/PGS
    Codec ID/Info                            : Picture based subtitle format used on BDs/HD-DVDs
    Language                                 : English
    Default                                  : No
    Forced                                   : No
    Statistics Tags Issue                    : mkvmerge v15.0.0 ('Duel with the Devil') 64-bit 2018-04-11 04:54:12 / mkvmerge v15.0.0 ('Duel with the Devil') 64-bit 2018-04-11 04:54:12 / UTC 2018-04-04T06:37:46Z
    FromStats_BitRate                        : 34876
    FromStats_Duration                       : 02:37:29.982000000
    FromStats_FrameCount                     : 2570
    FromStats_StreamSize                     : 41197954

    Menu
    00:00:00.000                             : :Chapter 1
    00:06:01.152                             : :Chapter 2
    00:14:36.334                             : :Chapter 3
    00:23:00.087                             : :Chapter 4
    00:32:25.318                             : :Chapter 5
    00:39:26.197                             : :Chapter 6
    00:43:00.286                             : :Chapter 7
    00:49:31.051                             : :Chapter 8
    00:53:31.583                             : :Chapter 9
    01:04:12.265                             : :Chapter 10
    01:12:41.274                             : :Chapter 11
    01:16:32.713                             : :Chapter 12
    01:19:46.198                             : :Chapter 13
    01:25:00.721                             : :Chapter 14
    01:33:08.416                             : :Chapter 15
    01:38:18.601                             : :Chapter 16
    01:49:40.365                             : :Chapter 17
    02:03:38.786                             : :Chapter 18
    02:06:16.360                             : :Chapter 19
    02:12:26.355                             : :Chapter 20
    02:17:46.300                             : :Chapter 21
    02:26:51.303                             : :Chapter 22
    02:35:44.001                             : :Chapter 23
    02:40:44.927                             : :Chapter 24
    02:42:45.339                             : :Chapter 25

  • Peso: 22.8 GiB

Sinopsis

Michael Corleone, heredero del imperio de don Vito Corleone, intenta rehabilitarse socialmente y legitimar todas las posesiones de la familia negociando con el Vaticano. Después de luchar toda su vida se encuentra cansado y centra todas sus esperanzas en encontrar un sucesor que se haga cargo de los negocios. Vincent, el hijo ilegítimo de su hermano Sonny, parece ser el elegido.

Ficha técnica

Video trailer de la película

Enlaces de descarga

Rip de Bluray

Descargar El padrino III (1990) Full 1080p Latino




Aportes de DPeliculasHDmega la pass es:dpeliculashdmega.org Aportes de CinemaniaHD la pass es:cinemaniahdd.com

Películas relacionadas

  • Tully (2018) 1080p Latino

    2018
    Tully (2018) 1080p Latino

    0.0 1 h 35 min 2018

    La historia de una mujer con tres hijos que, incapaz de lidiar con su bebé recién nacido, contrata...

    Director: Jason Reitman

    Género: Comedia

    Actores: Stormy Ent

  • Si solo pudiera imaginar (2018) Full 1080p Latino

    2018
    Si solo pudiera imaginar (2018) Full 1080p Latino

    5.0 1 h 50 min 2018

    La historia real de la aclamada canción "I Can Only Imagine", la canción cristiana contemporánea más...

    Director: Jon Erwin

    Género: Drama

    Actores: Trace Adkins

  • El Justiciero (2014) Full 1080p Latino

    2014
    El Justiciero (2014) Full 1080p Latino

    4.0 2 h 12 min 2014

    Robert McCall, un antiguo agente de la CIA que lleva ahora una vida tranquila, abandona su retiro para...

    Director: Deirdre Horgan

    Género: Acción

    Actores: Yan Dron

Comentarios 0