El padrino II (1974) Full 1080p Latino

633 vistas
1 estrella2 estrellas3 estrellas4 estrellas5 estrellas (5 votos, promedio: 3,40 de 5)
Cargando…

Información de El padrino II (1974) Full 1080p Latino

Datos de la película

  • Calidad: Full 1080p
  • Audio: Español Latino AC3 5.1 BLURAY - Ingles AC3 5.1 BLURAY
  • Subtitulos: Español Latino PGS - Ingles PGS
  • Resolución: 1920x1080p
  • Formato: MKV
  • Codec: H.264
  • Encoder: Dracarys
  • Mediainfo: Clic para Mostrar Datos Ver
  • Format                                   : Matroska
    Format version                           : Version 4 / Version 2
    File size                                : 23.0 GiB
    Duration                                 : 3 h 22 min
    Overall bit rate                         : 16.3 Mb/s
    Movie name                               : CinemaniaHDD.com
    Encoded date                             : UTC 2018-04-11 04:45:06 / UTC 2018-04-03T23:11:00Z
    Writing application                      : mkvmerge v15.0.0 ('Duel with the Devil') 64-bit
    Writing library                          : libebml v1.3.5 + libmatroska v1.4.5 / Lavf57.7.2

    Video
    ID                                       : 1
    Format                                   : AVC
    Format/Info                              : Advanced Video Codec
    Format profile                           : High@L4.1
    Format settings                          : CABAC / 4 Ref Frames
    Format settings, CABAC                   : Yes
    Format settings, RefFrames               : 4 frames
    Codec ID                                 : V_MPEG4/ISO/AVC
    Duration                                 : 3 h 22 min
    Bit rate                                 : 14.5 Mb/s
    Width                                    : 1 920 pixels
    Height                                   : 1 080 pixels
    Display aspect ratio                     : 16:9
    Frame rate mode                          : Constant
    Frame rate                               : 23.976 (24000/1001) FPS
    Color space                              : YUV
    Chroma subsampling                       : 4:2:0
    Bit depth                                : 8 bits
    Scan type                                : Progressive
    Bits/(Pixel*Frame)                       : 0.292
    Stream size                              : 20.5 GiB (89%)
    Title                                    : El padrino II (1974) Full 1080p Latino
    Writing library                          : x264 core 148 r2708 86b7198
    Encoding settings                        : cabac=1 / ref=4 / deblock=1:0:0 / analyse=0x3:0x133 / me=esa / subme=9 / psy=1 / psy_rd=1.00:0.00 / mixed_ref=1 / me_range=16 / chroma_me=1 / trellis=2 / 8x8dct=1 / cqm=0 / deadzone=21,11 / fast_pskip=1 / chroma_qp_offset=-2 / threads=34 / lookahead_threads=2 / sliced_threads=0 / nr=0 / decimate=1 / interlaced=0 / bluray_compat=0 / constrained_intra=0 / bframes=3 / b_pyramid=2 / b_adapt=2 / b_bias=0 / direct=3 / weightb=1 / open_gop=0 / weightp=2 / keyint=240 / keyint_min=24 / scenecut=40 / intra_refresh=0 / rc_lookahead=60 / rc=crf / mbtree=1 / crf=20.0 / qcomp=0.60 / qpmin=0 / qpmax=69 / qpstep=4 / vbv_maxrate=62500 / vbv_bufsize=78125 / crf_max=0.0 / nal_hrd=none / filler=0 / ip_ratio=1.40 / aq=1:1.00
    Language                                 : English
    Default                                  : Yes
    Forced                                   : No
    Color range                              : Limited
    Color primaries                          : BT.709
    Transfer characteristics                 : BT.709
    Matrix coefficients                      : BT.709
    Statistics Tags Issue                    : mkvmerge v15.0.0 ('Duel with the Devil') 64-bit 2018-04-11 04:45:06 / mkvmerge v15.0.0 ('Duel with the Devil') 64-bit 2018-04-11 04:45:06 / UTC 2018-04-03T23:11:00Z
    FromStats_BitRate                        : 14823023
    FromStats_Duration                       : 03:22:06.323000000
    FromStats_FrameCount                     : 290741
    FromStats_StreamSize                     : 22468595605

    Audio #1
    ID                                       : 2
    Format                                   : AC-3
    Format/Info                              : Audio Coding 3
    Format settings, Endianness              : Big
    Codec ID                                 : A_AC3
    Duration                                 : 3 h 22 min
    Bit rate mode                            : Constant
    Bit rate                                 : 192 kb/s
    Channel(s)                               : 2 channels
    Channel positions                        : Front: L R
    Sampling rate                            : 44.1 kHz
    Frame rate                               : 28.711 FPS (1536 SPF)
    Bit depth                                : 16 bits
    Compression mode                         : Lossy
    Stream size                              : 278 MiB (1%)
    Title                                    : Doblaje original
    Language                                 : Spanish
    Service kind                             : Complete Main
    Default                                  : No
    Forced                                   : No
    Statistics Tags Issue                    : mkvmerge v15.0.0 ('Duel with the Devil') 64-bit 2018-04-11 04:45:06 / mkvmerge v15.0.0 ('Duel with the Devil') 64-bit 2018-04-11 04:45:06 / UTC 2018-04-03T23:11:00Z
    FromStats_BitRate                        : 191999
    FromStats_Duration                       : 03:22:06.459000000
    FromStats_FrameCount                     : 348162
    FromStats_StreamSize                     : 291035010

    Audio #2
    ID                                       : 3
    Format                                   : AC-3
    Format/Info                              : Audio Coding 3
    Format settings, Endianness              : Big
    Codec ID                                 : A_AC3
    Duration                                 : 3 h 22 min
    Bit rate mode                            : Constant
    Bit rate                                 : 640 kb/s
    Channel(s)                               : 6 channels
    Channel positions                        : Front: L C R, Side: L R, LFE
    Sampling rate                            : 48.0 kHz
    Frame rate                               : 31.250 FPS (1536 SPF)
    Bit depth                                : 16 bits
    Compression mode                         : Lossy
    Stream size                              : 925 MiB (4%)
    Title                                    : Doblaje Segundario
    Language                                 : Spanish
    Service kind                             : Complete Main
    Default                                  : Yes
    Forced                                   : No
    Statistics Tags Issue                    : mkvmerge v15.0.0 ('Duel with the Devil') 64-bit 2018-04-11 04:45:06 / mkvmerge v15.0.0 ('Duel with the Devil') 64-bit 2018-04-11 04:45:06 / UTC 2018-04-03T23:11:00Z
    FromStats_BitRate                        : 640000
    FromStats_Duration                       : 03:22:06.336000000
    FromStats_FrameCount                     : 378948
    FromStats_StreamSize                     : 970106880

    Audio #3
    ID                                       : 4
    Format                                   : AC-3
    Format/Info                              : Audio Coding 3
    Format settings, Endianness              : Big
    Codec ID                                 : A_AC3
    Duration                                 : 3 h 22 min
    Bit rate mode                            : Constant
    Bit rate                                 : 640 kb/s
    Channel(s)                               : 6 channels
    Channel positions                        : Front: L C R, Side: L R, LFE
    Sampling rate                            : 48.0 kHz
    Frame rate                               : 31.250 FPS (1536 SPF)
    Bit depth                                : 16 bits
    Compression mode                         : Lossy
    Stream size                              : 925 MiB (4%)
    Title                                    : Ingles
    Language                                 : English
    Service kind                             : Complete Main
    Default                                  : No
    Forced                                   : No
    Statistics Tags Issue                    : mkvmerge v15.0.0 ('Duel with the Devil') 64-bit 2018-04-11 04:45:06 / mkvmerge v15.0.0 ('Duel with the Devil') 64-bit 2018-04-11 04:45:06 / UTC 2018-04-03T23:11:00Z
    FromStats_BitRate                        : 640000
    FromStats_Duration                       : 03:22:06.368000000
    FromStats_FrameCount                     : 378949
    FromStats_StreamSize                     : 970109440

    Text #1
    ID                                       : 5
    Format                                   : PGS
    Muxing mode                              : zlib
    Codec ID                                 : S_HDMV/PGS
    Codec ID/Info                            : Picture based subtitle format used on BDs/HD-DVDs
    Title                                    : Forzados
    Language                                 : Spanish
    Default                                  : Yes
    Forced                                   : Yes
    Statistics Tags Issue                    : mkvmerge v15.0.0 ('Duel with the Devil') 64-bit 2018-04-11 04:45:06 / mkvmerge v15.0.0 ('Duel with the Devil') 64-bit 2018-04-11 04:45:06 / UTC 2018-04-03T23:11:00Z
    FromStats_BitRate                        : 7105
    FromStats_Duration                       : 02:59:21.470000000
    FromStats_FrameCount                     : 614
    FromStats_StreamSize                     : 9558864

    Text #2
    ID                                       : 6
    Format                                   : PGS
    Muxing mode                              : zlib
    Codec ID                                 : S_HDMV/PGS
    Codec ID/Info                            : Picture based subtitle format used on BDs/HD-DVDs
    Language                                 : Spanish
    Default                                  : No
    Forced                                   : No
    Statistics Tags Issue                    : mkvmerge v15.0.0 ('Duel with the Devil') 64-bit 2018-04-11 04:45:06 / mkvmerge v15.0.0 ('Duel with the Devil') 64-bit 2018-04-11 04:45:06 / UTC 2018-04-03T23:11:00Z
    FromStats_BitRate                        : 35116
    FromStats_Duration                       : 03:14:36.551000000
    FromStats_FrameCount                     : 2886
    FromStats_StreamSize                     : 51254268

    Text #3
    ID                                       : 7
    Format                                   : PGS
    Muxing mode                              : zlib
    Codec ID                                 : S_HDMV/PGS
    Codec ID/Info                            : Picture based subtitle format used on BDs/HD-DVDs
    Language                                 : English
    Default                                  : No
    Forced                                   : No
    Statistics Tags Issue                    : mkvmerge v15.0.0 ('Duel with the Devil') 64-bit 2018-04-11 04:45:06 / mkvmerge v15.0.0 ('Duel with the Devil') 64-bit 2018-04-11 04:45:06 / UTC 2018-04-03T23:11:00Z
    FromStats_BitRate                        : 35498
    FromStats_Duration                       : 03:13:19.421000000
    FromStats_FrameCount                     : 3004
    FromStats_StreamSize                     : 51469880

    Menu
    00:00:00.000                             : :Chapter 1
    00:03:40.429                             : :Chapter 2
    00:07:29.741                             : :Chapter 3
    00:12:04.766                             : :Chapter 4
    00:16:18.186                             : :Chapter 5
    00:27:38.115                             : :Chapter 6
    00:34:28.191                             : :Chapter 7
    00:43:44.705                             : :Chapter 8
    00:49:32.511                             : :Chapter 9
    00:59:50.087                             : :Chapter 10
    01:12:52.034                             : :Chapter 11
    01:17:13.587                             : :Chapter 12
    01:26:18.882                             : :Chapter 13
    01:47:22.227                             : :Chapter 14
    01:50:16.944                             : :Chapter 15
    01:55:32.426                             : :Chapter 16
    02:06:50.686                             : :Chapter 17
    02:13:12.485                             : :Chapter 18
    02:20:50.484                             : :Chapter 19
    02:28:29.692                             : :Chapter 20
    02:33:35.957                             : :Chapter 21
    02:37:57.009                             : :Chapter 22
    02:44:08.505                             : :Chapter 23
    02:51:08.383                             : :Chapter 24
    02:56:46.721                             : :Chapter 25
    03:01:32.882                             : :Chapter 26
    03:05:20.401                             : :Chapter 27
    03:07:25.860                             : :Chapter 28
    03:12:01.510                             : :Chapter 29
    03:16:56.972                             : :Chapter 30

  • Peso: 23.0 GiB

Sinopsis

Continuación de la saga de los Corleone con dos historias paralelas: la elección de Michael Corleone como jefe de los negocios familiares y los orígenes del patriarca, el ya fallecido Don Vito, primero en Sicilia y luego en Estados Unidos, donde, empezando desde abajo, llegó a ser un poderosísimo jefe de la mafia de Nueva York.

 

 

Esta versión cuenta con el Doblaje original y el del Bluray

Ficha técnica

Video trailer de la película

Enlaces de descarga

Rip de Bluray

Descargar El padrino II (1974) Full 1080p Latino




Aportes de DPeliculasHDmega la pass es:dpeliculashdmega.org Aportes de CinemaniaHD la pass es:cinemaniahdd.com
Guardado en : Crimen , Drama , FULL 1080p Plateadas

Películas relacionadas

  • Tully (2018) 1080p Latino

    2018
    Tully (2018) 1080p Latino

    0.0 1 h 35 min 2018

    La historia de una mujer con tres hijos que, incapaz de lidiar con su bebé recién nacido, contrata...

    Director: Jason Reitman

    Género: Comedia

    Actores: Stormy Ent

  • Si solo pudiera imaginar (2018) Full 1080p Latino

    2018
    Si solo pudiera imaginar (2018) Full 1080p Latino

    4.8 1 h 50 min 2018

    La historia real de la aclamada canción "I Can Only Imagine", la canción cristiana contemporánea más...

    Director: Jon Erwin

    Género: Drama

    Actores: Trace Adkins

  • El Justiciero (2014) Full 1080p Latino

    2014
    El Justiciero (2014) Full 1080p Latino

    4.3 2 h 12 min 2014

    Robert McCall, un antiguo agente de la CIA que lleva ahora una vida tranquila, abandona su retiro para...

    Director: Deirdre Horgan

    Género: Acción

    Actores: Yan Dron

Comentarios 0