El padrino (1972) Full 1080p Latino

1.087 vistas
1 estrella2 estrellas3 estrellas4 estrellas5 estrellas (4 votos, promedio: 3,75 de 5)
Cargando…

Información de El padrino (1972) Full 1080p Latino

Datos de la película

  • Calidad: Full 1080p
  • Audio: Español Latino AC3 5.1 BLURAY - Ingles AC3 5.1 BLURAY
  • Subtitulos: Español Latino PGS - Ingles PGS
  • Resolución: 1920x1080p
  • Formato: MKV
  • Codec: H.264
  • Encoder: Dracarys
  • Mediainfo: Clic para Mostrar Datos Ver
  • Format                                   : Matroska
    Format version                           : Version 4 / Version 2
    File size                                : 18.3 GiB
    Duration                                 : 2 h 57 min
    Overall bit rate                         : 14.8 Mb/s
    Movie name                               : CinemaniaHDD.com
    Encoded date                             : UTC 2018-04-11 04:32:34 / UTC 2018-04-03T17:14:36Z
    Writing application                      : mkvmerge v15.0.0 ('Duel with the Devil') 64-bit
    Writing library                          : libebml v1.3.5 + libmatroska v1.4.5 / Lavf57.7.2

    Video
    ID                                       : 1
    Format                                   : AVC
    Format/Info                              : Advanced Video Codec
    Format profile                           : High@L4.1
    Format settings                          : CABAC / 4 Ref Frames
    Format settings, CABAC                   : Yes
    Format settings, RefFrames               : 4 frames
    Codec ID                                 : V_MPEG4/ISO/AVC
    Duration                                 : 2 h 57 min
    Bit rate                                 : 13.0 Mb/s
    Width                                    : 1 920 pixels
    Height                                   : 1 080 pixels
    Display aspect ratio                     : 16:9
    Frame rate mode                          : Constant
    Frame rate                               : 23.976 (24000/1001) FPS
    Color space                              : YUV
    Chroma subsampling                       : 4:2:0
    Bit depth                                : 8 bits
    Scan type                                : Progressive
    Bits/(Pixel*Frame)                       : 0.262
    Stream size                              : 16.1 GiB (88%)
    Title                                    : El padrino (1972) Full 1080p Latino
    Writing library                          : x264 core 148 r2708 86b7198
    Encoding settings                        : cabac=1 / ref=4 / deblock=1:0:0 / analyse=0x3:0x133 / me=esa / subme=9 / psy=1 / psy_rd=1.00:0.00 / mixed_ref=1 / me_range=16 / chroma_me=1 / trellis=2 / 8x8dct=1 / cqm=0 / deadzone=21,11 / fast_pskip=1 / chroma_qp_offset=-2 / threads=34 / lookahead_threads=2 / sliced_threads=0 / nr=0 / decimate=1 / interlaced=0 / bluray_compat=0 / constrained_intra=0 / bframes=3 / b_pyramid=2 / b_adapt=2 / b_bias=0 / direct=3 / weightb=1 / open_gop=0 / weightp=2 / keyint=240 / keyint_min=24 / scenecut=40 / intra_refresh=0 / rc_lookahead=60 / rc=crf / mbtree=1 / crf=20.0 / qcomp=0.60 / qpmin=0 / qpmax=69 / qpstep=4 / vbv_maxrate=62500 / vbv_bufsize=78125 / crf_max=0.0 / nal_hrd=none / filler=0 / ip_ratio=1.40 / aq=1:1.00
    Language                                 : English
    Default                                  : Yes
    Forced                                   : No
    Color range                              : Limited
    Color primaries                          : BT.709
    Transfer characteristics                 : BT.709
    Matrix coefficients                      : BT.709
    Statistics Tags Issue                    : mkvmerge v15.0.0 ('Duel with the Devil') 64-bit 2018-04-11 04:32:34 / mkvmerge v15.0.0 ('Duel with the Devil') 64-bit 2018-04-11 04:32:34 / UTC 2018-04-03T17:14:36Z
    FromStats_BitRate                        : 13269246
    FromStats_Duration                       : 02:57:09.161000000
    FromStats_FrameCount                     : 254845
    FromStats_StreamSize                     : 17630119851

    Audio #1
    ID                                       : 2
    Format                                   : AC-3
    Format/Info                              : Audio Coding 3
    Format settings, Endianness              : Big
    Codec ID                                 : A_AC3
    Duration                                 : 2 h 57 min
    Bit rate mode                            : Constant
    Bit rate                                 : 192 kb/s
    Channel(s)                               : 2 channels
    Channel positions                        : Front: L R
    Sampling rate                            : 44.1 kHz
    Frame rate                               : 28.711 FPS (1536 SPF)
    Bit depth                                : 16 bits
    Compression mode                         : Lossy
    Stream size                              : 243 MiB (1%)
    Title                                    : Doblaje Original
    Language                                 : Spanish
    Service kind                             : Complete Main
    Default                                  : No
    Forced                                   : No
    Statistics Tags Issue                    : mkvmerge v15.0.0 ('Duel with the Devil') 64-bit 2018-04-11 04:32:34 / mkvmerge v15.0.0 ('Duel with the Devil') 64-bit 2018-04-11 04:32:34 / UTC 2018-04-03T17:14:36Z
    FromStats_BitRate                        : 192000
    FromStats_Duration                       : 02:57:09.085000000
    FromStats_FrameCount                     : 305171
    FromStats_StreamSize                     : 255098044

    Audio #2
    ID                                       : 3
    Format                                   : AC-3
    Format/Info                              : Audio Coding 3
    Format settings, Endianness              : Big
    Codec ID                                 : A_AC3
    Duration                                 : 2 h 57 min
    Bit rate mode                            : Constant
    Bit rate                                 : 640 kb/s
    Channel(s)                               : 6 channels
    Channel positions                        : Front: L C R, Side: L R, LFE
    Sampling rate                            : 48.0 kHz
    Frame rate                               : 31.250 FPS (1536 SPF)
    Bit depth                                : 16 bits
    Compression mode                         : Lossy
    Stream size                              : 811 MiB (4%)
    Title                                    : Doblaje Segundario
    Language                                 : Spanish
    Service kind                             : Complete Main
    Default                                  : Yes
    Forced                                   : No
    Statistics Tags Issue                    : mkvmerge v15.0.0 ('Duel with the Devil') 64-bit 2018-04-11 04:32:34 / mkvmerge v15.0.0 ('Duel with the Devil') 64-bit 2018-04-11 04:32:34 / UTC 2018-04-03T17:14:36Z
    FromStats_BitRate                        : 640000
    FromStats_Duration                       : 02:57:09.088000000
    FromStats_FrameCount                     : 332159
    FromStats_StreamSize                     : 850327040

    Audio #3
    ID                                       : 4
    Format                                   : AC-3
    Format/Info                              : Audio Coding 3
    Format settings, Endianness              : Big
    Codec ID                                 : A_AC3
    Duration                                 : 2 h 57 min
    Bit rate mode                            : Constant
    Bit rate                                 : 640 kb/s
    Channel(s)                               : 6 channels
    Channel positions                        : Front: L C R, Side: L R, LFE
    Sampling rate                            : 48.0 kHz
    Frame rate                               : 31.250 FPS (1536 SPF)
    Bit depth                                : 16 bits
    Compression mode                         : Lossy
    Stream size                              : 811 MiB (4%)
    Title                                    : Ingles
    Language                                 : English
    Service kind                             : Complete Main
    Default                                  : No
    Forced                                   : No
    Statistics Tags Issue                    : mkvmerge v15.0.0 ('Duel with the Devil') 64-bit 2018-04-11 04:32:34 / mkvmerge v15.0.0 ('Duel with the Devil') 64-bit 2018-04-11 04:32:34 / UTC 2018-04-03T17:14:36Z
    FromStats_BitRate                        : 640000
    FromStats_Duration                       : 02:57:09.184000000
    FromStats_FrameCount                     : 332162
    FromStats_StreamSize                     : 850334720

    Text #1
    ID                                       : 5
    Format                                   : PGS
    Muxing mode                              : zlib
    Codec ID                                 : S_HDMV/PGS
    Codec ID/Info                            : Picture based subtitle format used on BDs/HD-DVDs
    Title                                    : Forzados
    Language                                 : Spanish
    Default                                  : Yes
    Forced                                   : Yes
    Statistics Tags Issue                    : mkvmerge v15.0.0 ('Duel with the Devil') 64-bit 2018-04-11 04:32:34 / mkvmerge v15.0.0 ('Duel with the Devil') 64-bit 2018-04-11 04:32:34 / UTC 2018-04-03T17:14:36Z
    FromStats_BitRate                        : 1969
    FromStats_Duration                       : 02:48:12.343000000
    FromStats_FrameCount                     : 168
    FromStats_StreamSize                     : 2485214

    Text #2
    ID                                       : 6
    Format                                   : PGS
    Muxing mode                              : zlib
    Codec ID                                 : S_HDMV/PGS
    Codec ID/Info                            : Picture based subtitle format used on BDs/HD-DVDs
    Language                                 : Spanish
    Default                                  : No
    Forced                                   : No
    Statistics Tags Issue                    : mkvmerge v15.0.0 ('Duel with the Devil') 64-bit 2018-04-11 04:32:34 / mkvmerge v15.0.0 ('Duel with the Devil') 64-bit 2018-04-11 04:32:34 / UTC 2018-04-03T17:14:36Z
    FromStats_BitRate                        : 34440
    FromStats_Duration                       : 02:51:55.191000000
    FromStats_FrameCount                     : 2558
    FromStats_StreamSize                     : 44407792

    Text #3
    ID                                       : 7
    Format                                   : PGS
    Muxing mode                              : zlib
    Codec ID                                 : S_HDMV/PGS
    Codec ID/Info                            : Picture based subtitle format used on BDs/HD-DVDs
    Language                                 : English
    Default                                  : No
    Forced                                   : No
    Statistics Tags Issue                    : mkvmerge v15.0.0 ('Duel with the Devil') 64-bit 2018-04-11 04:32:34 / mkvmerge v15.0.0 ('Duel with the Devil') 64-bit 2018-04-11 04:32:34 / UTC 2018-04-03T17:14:36Z
    FromStats_BitRate                        : 35226
    FromStats_Duration                       : 02:51:37.120000000
    FromStats_FrameCount                     : 2624
    FromStats_StreamSize                     : 45341568

    Menu
    00:00:00.000                             : :Chapter 1
    00:07:30.784                             : :Chapter 2
    00:18:03.624                             : :Chapter 3
    00:27:03.455                             : :Chapter 4
    00:34:20.183                             : :Chapter 5
    00:40:17.749                             : :Chapter 6
    00:48:52.304                             : :Chapter 7
    00:58:18.328                             : :Chapter 8
    01:08:44.579                             : :Chapter 9
    01:15:49.003                             : :Chapter 10
    01:30:00.687                             : :Chapter 11
    01:37:06.863                             : :Chapter 12
    01:46:18.163                             : :Chapter 13
    01:49:30.189                             : :Chapter 14
    01:53:57.664                             : :Chapter 15
    02:03:21.311                             : :Chapter 16
    02:06:37.256                             : :Chapter 17
    02:13:28.125                             : :Chapter 18
    02:19:47.462                             : :Chapter 19
    02:25:56.706                             : :Chapter 20
    02:36:56.032                             : :Chapter 21
    02:44:43.540                             : :Chapter 22
    02:53:05.750                             : :Chapter 23

  • Peso: 18.3 GiB

Sinopsis

Don Vito Corleone, conocido dentro de los círculos del hampa como “El Padrino”, es el patriarca de una de las cinco familias que ejercen el mando de la Cosa Nostra en Nueva York en los años 40. Don Corleone tiene cuatro hijos; una chica, Connie, y tres varones, Sonny, Michael y Freddie, al que envían exiliado a Las Vegas, dada su incapacidad para asumir puestos de mando en la “Familia”. Cuando el Padrino reclina intervenir en el negocio de estupefacientes, empieza una cruenta lucha de violentos episodios entre las distintas familias del crimen organizado.

 

Esta versión cuenta con el Doblaje original y el del Bluray

Ficha técnica

Video trailer de la película

Enlaces de descarga

Rip de Bluray

Descargar El padrino (1972) Full 1080p Latino




Aportes de DPeliculasHDmega la pass es:dpeliculashdmega.org Aportes de CinemaniaHD la pass es:cinemaniahdd.com
Guardado en : Crimen , Drama , FULL 1080p Plateadas

Películas relacionadas

  • Tully (2018) 1080p Latino

    2018
    Tully (2018) 1080p Latino

    0.0 1 h 35 min 2018

    La historia de una mujer con tres hijos que, incapaz de lidiar con su bebé recién nacido, contrata...

    Director: Jason Reitman

    Género: Comedia

    Actores: Stormy Ent

  • Si solo pudiera imaginar (2018) Full 1080p Latino

    2018
    Si solo pudiera imaginar (2018) Full 1080p Latino

    4.8 1 h 50 min 2018

    La historia real de la aclamada canción "I Can Only Imagine", la canción cristiana contemporánea más...

    Director: Jon Erwin

    Género: Drama

    Actores: Trace Adkins

  • El Justiciero (2014) Full 1080p Latino

    2014
    El Justiciero (2014) Full 1080p Latino

    4.3 2 h 12 min 2014

    Robert McCall, un antiguo agente de la CIA que lleva ahora una vida tranquila, abandona su retiro para...

    Director: Deirdre Horgan

    Género: Acción

    Actores: Yan Dron

Comentarios 1
  • Ragnarok - 11 abril, 2018

    Chas gracias por el exelente trabajo, que bueno que incluyeron los 2 doblajes en latino… Saludos