El ocaso de una vida (1950) Full 1080p Latino

321 vistas
1 estrella2 estrellas3 estrellas4 estrellas5 estrellas (1 votos, promedio: 5,00 de 5)
Cargando…

Información de El ocaso de una vida (1950) Full 1080p Latino

Datos de la película

  • Calidad: Full 1080p
  • Audio: Se especifica abajo de la Sinopsis
  • Subtitulos: Español Latino PGS - Ingles PGS
  • Resolución: 1920x1080p
  • Formato: MKV
  • Codec: H.264
  • Encoder: Dracarys
  • Mediainfo: Clic para Mostrar Datos Ver
  • Format                                   : Matroska
    Format version                           : Version 4 / Version 2
    File size                                : 9.26 GiB
    Duration                                 : 1 h 50 min
    Overall bit rate                         : 12.0 Mb/s
    Movie name                               : CinemaniaHDD.com
    Encoded date                             : UTC 2018-05-03 22:17:06 / UTC 2018-05-01T09:38:24Z
    Writing application                      : mkvmerge v15.0.0 ('Duel with the Devil') 64-bit
    Writing library                          : libebml v1.3.5 + libmatroska v1.4.5 / Lavf57.7.2

    Video
    ID                                       : 1
    Format                                   : AVC
    Format/Info                              : Advanced Video Codec
    Format profile                           : High@L4.1
    Format settings                          : CABAC / 4 Ref Frames
    Format settings, CABAC                   : Yes
    Format settings, RefFrames               : 4 frames
    Codec ID                                 : V_MPEG4/ISO/AVC
    Duration                                 : 1 h 50 min
    Bit rate                                 : 11.3 Mb/s
    Width                                    : 1 920 pixels
    Height                                   : 1 080 pixels
    Display aspect ratio                     : 16:9
    Frame rate mode                          : Constant
    Frame rate                               : 23.976 (24000/1001) FPS
    Color space                              : YUV
    Chroma subsampling                       : 4:2:0
    Bit depth                                : 8 bits
    Scan type                                : Progressive
    Bits/(Pixel*Frame)                       : 0.228
    Stream size                              : 8.73 GiB (94%)
    Title                                    : El ocaso de una vida (1950) Full 1080p Latino
    Writing library                          : x264 core 148 r2708 86b7198
    Encoding settings                        : cabac=1 / ref=4 / deblock=1:0:0 / analyse=0x3:0x133 / me=esa / subme=9 / psy=1 / psy_rd=1.00:0.00 / mixed_ref=1 / me_range=16 / chroma_me=1 / trellis=2 / 8x8dct=1 / cqm=0 / deadzone=21,11 / fast_pskip=1 / chroma_qp_offset=-2 / threads=34 / lookahead_threads=2 / sliced_threads=0 / nr=0 / decimate=1 / interlaced=0 / bluray_compat=0 / constrained_intra=0 / bframes=3 / b_pyramid=2 / b_adapt=2 / b_bias=0 / direct=3 / weightb=1 / open_gop=0 / weightp=2 / keyint=240 / keyint_min=24 / scenecut=40 / intra_refresh=0 / rc_lookahead=60 / rc=crf / mbtree=1 / crf=20.0 / qcomp=0.60 / qpmin=0 / qpmax=69 / qpstep=4 / vbv_maxrate=62500 / vbv_bufsize=78125 / crf_max=0.0 / nal_hrd=none / filler=0 / ip_ratio=1.40 / aq=1:1.00
    Language                                 : English
    Default                                  : Yes
    Forced                                   : No
    Color range                              : Limited
    Color primaries                          : BT.709
    Transfer characteristics                 : BT.709
    Matrix coefficients                      : BT.709
    Statistics Tags Issue                    : mkvmerge v15.0.0 ('Duel with the Devil') 64-bit 2018-05-03 22:17:06 / mkvmerge v15.0.0 ('Duel with the Devil') 64-bit 2018-05-03 22:17:06 / UTC 2018-05-01T09:38:24Z
    FromStats_BitRate                        : 11538158
    FromStats_Duration                       : 01:50:17.653000000
    FromStats_FrameCount                     : 158665
    FromStats_StreamSize                     : 9544441258

    Audio #1
    ID                                       : 2
    Format                                   : AC-3
    Format/Info                              : Audio Coding 3
    Format settings, Endianness              : Big
    Codec ID                                 : A_AC3
    Duration                                 : 1 h 50 min
    Bit rate mode                            : Constant
    Bit rate                                 : 224 kb/s
    Channel(s)                               : 2 channels
    Channel positions                        : Front: L R
    Sampling rate                            : 48.0 kHz
    Frame rate                               : 31.250 FPS (1536 SPF)
    Bit depth                                : 16 bits
    Compression mode                         : Lossy
    Stream size                              : 177 MiB (2%)
    Language                                 : Spanish
    Service kind                             : Complete Main
    Default                                  : Yes
    Forced                                   : No
    Statistics Tags Issue                    : mkvmerge v15.0.0 ('Duel with the Devil') 64-bit 2018-05-03 22:17:06 / mkvmerge v15.0.0 ('Duel with the Devil') 64-bit 2018-05-03 22:17:06 / UTC 2018-05-01T09:38:24Z
    FromStats_BitRate                        : 224000
    FromStats_Duration                       : 01:50:17.664000000
    FromStats_FrameCount                     : 206802
    FromStats_StreamSize                     : 185294592

    Audio #2
    ID                                       : 3
    Format                                   : AC-3
    Format/Info                              : Audio Coding 3
    Format settings, Endianness              : Big
    Codec ID                                 : A_AC3
    Duration                                 : 1 h 50 min
    Bit rate mode                            : Constant
    Bit rate                                 : 224 kb/s
    Channel(s)                               : 2 channels
    Channel positions                        : Front: L R
    Sampling rate                            : 48.0 kHz
    Frame rate                               : 31.250 FPS (1536 SPF)
    Bit depth                                : 16 bits
    Compression mode                         : Lossy
    Delay relative to video                  : 32 ms
    Stream size                              : 177 MiB (2%)
    Language                                 : English
    Service kind                             : Complete Main
    Default                                  : No
    Forced                                   : No
    Statistics Tags Issue                    : mkvmerge v15.0.0 ('Duel with the Devil') 64-bit 2018-05-03 22:17:06 / mkvmerge v15.0.0 ('Duel with the Devil') 64-bit 2018-05-03 22:17:06 / UTC 2018-05-01T09:38:24Z
    FromStats_BitRate                        : 224000
    FromStats_Duration                       : 01:50:17.632000000
    FromStats_FrameCount                     : 206801
    FromStats_StreamSize                     : 185293696

    Text #1
    ID                                       : 4
    Format                                   : PGS
    Muxing mode                              : zlib
    Codec ID                                 : S_HDMV/PGS
    Codec ID/Info                            : Picture based subtitle format used on BDs/HD-DVDs
    Language                                 : English
    Default                                  : No
    Forced                                   : No
    Statistics Tags Issue                    : mkvmerge v15.0.0 ('Duel with the Devil') 64-bit 2018-05-03 22:17:06 / mkvmerge v15.0.0 ('Duel with the Devil') 64-bit 2018-05-03 22:17:06 / UTC 2018-05-01T09:38:24Z
    FromStats_BitRate                        : 50398
    FromStats_Duration                       : 01:47:58.931000000
    FromStats_FrameCount                     : 2868
    FromStats_StreamSize                     : 40816078

    Text #2
    ID                                       : 5
    Format                                   : PGS
    Muxing mode                              : zlib
    Codec ID                                 : S_HDMV/PGS
    Codec ID/Info                            : Picture based subtitle format used on BDs/HD-DVDs
    Language                                 : Spanish
    Default                                  : No
    Forced                                   : No
    Statistics Tags Issue                    : mkvmerge v15.0.0 ('Duel with the Devil') 64-bit 2018-05-03 22:17:06 / mkvmerge v15.0.0 ('Duel with the Devil') 64-bit 2018-05-03 22:17:06 / UTC 2018-05-01T09:38:24Z
    FromStats_BitRate                        : 43305
    FromStats_Duration                       : 01:49:38.948000000
    FromStats_FrameCount                     : 2883
    FromStats_StreamSize                     : 35612814

    Menu
    00:00:00.000                             : :Chapter 1
    00:02:45.207                             : :Chapter 2
    00:10:20.620                             : :Chapter 3
    00:13:29.017                             : :Chapter 4
    00:17:47.775                             : :Chapter 5
    00:24:02.399                             : :Chapter 6
    00:29:17.089                             : :Chapter 7
    00:33:10.989                             : :Chapter 8
    00:37:43.762                             : :Chapter 9
    00:41:14.055                             : :Chapter 10
    00:56:09.783                             : :Chapter 11
    01:01:09.916                             : :Chapter 12
    01:04:01.504                             : :Chapter 13
    01:07:28.670                             : :Chapter 14
    01:15:53.799                             : :Chapter 15
    01:21:17.331                             : :Chapter 16
    01:30:01.146                             : :Chapter 17
    01:38:38.204                             : :Chapter 18
    01:43:26.867                             : :Chapter 19

  • Peso: 9.26 GiB

Sinopsis

Un guionista comienza un romance con una actriz de cine mudo que se cree en la cima de su profesión.

 

 

Latino AC3 2.0 Bluray  –  Ingles AC3 2.0 Bluray

Ficha técnica

Video trailer de la película

Enlaces de descarga

Rip de Bluray

Descargar El ocaso de una vida (1950) Full 1080p Latino




Aportes de DPeliculasHDmega la pass es:dpeliculashdmega.org Aportes de CinemaniaHD la pass es:cinemaniahdd.com
Guardado en : Drama , FULL 1080p Plateadas

Películas relacionadas

Comentarios 0