El niño con el pijama de rayas (2008) Full 1080p Latino

865 vistas
1 estrella2 estrellas3 estrellas4 estrellas5 estrellas (2 votos, promedio: 5,00 de 5)
Cargando…

Información de El niño con el pijama de rayas (2008) Full 1080p Latino

Datos de la película

  • Calidad: Full 1080p
  • Audio: Español Latino DTS 5.1 BLURAY - Ingles DTS 5.1 BLURAY
  • Subtitulos: Español Latino PGS - Ingles PGS
  • Resolución: 1920X1080p
  • Formato: MKV
  • Codec: H.264
  • Encoder: Dracarys
  • Mediainfo: Clic para Mostrar Datos Ver
  • Format                                   : Matroska
    Format version                           : Version 4 / Version 2
    File size                                : 6.89 GiB
    Duration                                 : 1 h 34 min
    Overall bit rate                         : 10.4 Mb/s
    Movie name                               : CinemaniaHDD.com
    Encoded date                             : UTC 2018-03-15 03:34:52 / UTC 2018-03-14T17:26:07Z
    Writing application                      : mkvmerge v15.0.0 ('Duel with the Devil') 64-bit
    Writing library                          : libebml v1.3.5 + libmatroska v1.4.5 / Lavf57.7.2

    Video
    ID                                       : 1
    Format                                   : AVC
    Format/Info                              : Advanced Video Codec
    Format profile                           : High@L4.1
    Format settings                          : CABAC / 4 Ref Frames
    Format settings, CABAC                   : Yes
    Format settings, RefFrames               : 4 frames
    Codec ID                                 : V_MPEG4/ISO/AVC
    Duration                                 : 1 h 34 min
    Bit rate                                 : 7 211 kb/s
    Width                                    : 1 920 pixels
    Height                                   : 1 080 pixels
    Display aspect ratio                     : 16:9
    Frame rate mode                          : Constant
    Frame rate                               : 23.976 (24000/1001) FPS
    Color space                              : YUV
    Chroma subsampling                       : 4:2:0
    Bit depth                                : 8 bits
    Scan type                                : Progressive
    Bits/(Pixel*Frame)                       : 0.145
    Stream size                              : 4.76 GiB (69%)
    Title                                    : El niño con el pijama de rayas (2008) Full 1080p Latino
    Writing library                          : x264 core 148 r2708 86b7198
    Encoding settings                        : cabac=1 / ref=4 / deblock=1:0:0 / analyse=0x3:0x133 / me=esa / subme=9 / psy=1 / psy_rd=1.00:0.00 / mixed_ref=1 / me_range=16 / chroma_me=1 / trellis=2 / 8x8dct=1 / cqm=0 / deadzone=21,11 / fast_pskip=1 / chroma_qp_offset=-2 / threads=34 / lookahead_threads=2 / sliced_threads=0 / nr=0 / decimate=1 / interlaced=0 / bluray_compat=0 / constrained_intra=0 / bframes=3 / b_pyramid=2 / b_adapt=2 / b_bias=0 / direct=3 / weightb=1 / open_gop=0 / weightp=2 / keyint=240 / keyint_min=24 / scenecut=40 / intra_refresh=0 / rc_lookahead=60 / rc=crf / mbtree=1 / crf=20.0 / qcomp=0.60 / qpmin=0 / qpmax=69 / qpstep=4 / vbv_maxrate=62500 / vbv_bufsize=78125 / crf_max=0.0 / nal_hrd=none / filler=0 / ip_ratio=1.40 / aq=1:1.00
    Language                                 : English
    Default                                  : Yes
    Forced                                   : No
    Color range                              : Limited
    Color primaries                          : BT.709
    Transfer characteristics                 : BT.709
    Matrix coefficients                      : BT.709
    Statistics Tags Issue                    : mkvmerge v15.0.0 ('Duel with the Devil') 64-bit 2018-03-15 03:34:52 / mkvmerge v15.0.0 ('Duel with the Devil') 64-bit 2018-03-15 03:34:52 / UTC 2018-03-14T17:26:07Z
    FromStats_BitRate                        : 7394423
    FromStats_Duration                       : 01:34:28.538000000
    FromStats_FrameCount                     : 135909
    FromStats_StreamSize                     : 5239446349

    Audio #1
    ID                                       : 2
    Format                                   : DTS
    Format/Info                              : Digital Theater Systems
    Mode                                     : 16
    Format settings, Endianness              : Big
    Codec ID                                 : A_DTS
    Duration                                 : 1 h 34 min
    Bit rate mode                            : Constant
    Bit rate                                 : 1 509 kb/s
    Channel(s)                               : 6 channels
    Channel positions                        : Front: L C R, Side: L R, LFE
    Sampling rate                            : 48.0 kHz
    Frame rate                               : 93.750 FPS (512 SPF)
    Bit depth                                : 16 bits
    Compression mode                         : Lossy
    Delay relative to video                  : 1 s 0 ms
    Stream size                              : 1 020 MiB (14%)
    Language                                 : Spanish
    Default                                  : Yes
    Forced                                   : No
    Statistics Tags Issue                    : mkvmerge v15.0.0 ('Duel with the Devil') 64-bit 2018-03-15 03:34:52 / mkvmerge v15.0.0 ('Duel with the Devil') 64-bit 2018-03-15 03:34:52 / UTC 2018-03-14T17:26:07Z
    FromStats_BitRate                        : 1509000
    FromStats_Duration                       : 01:34:29.088000000
    FromStats_FrameCount                     : 531477
    FromStats_StreamSize                     : 1069331724

    Audio #2
    ID                                       : 3
    Format                                   : DTS
    Format/Info                              : Digital Theater Systems
    Mode                                     : 16
    Format settings, Endianness              : Big
    Codec ID                                 : A_DTS
    Duration                                 : 1 h 34 min
    Bit rate mode                            : Constant
    Bit rate                                 : 1 509 kb/s
    Channel(s)                               : 6 channels
    Channel positions                        : Front: L C R, Side: L R, LFE
    Sampling rate                            : 48.0 kHz
    Frame rate                               : 93.750 FPS (512 SPF)
    Bit depth                                : 24 bits
    Compression mode                         : Lossy
    Stream size                              : 1 020 MiB (14%)
    Language                                 : English
    Default                                  : No
    Forced                                   : No
    Statistics Tags Issue                    : mkvmerge v15.0.0 ('Duel with the Devil') 64-bit 2018-03-15 03:34:52 / mkvmerge v15.0.0 ('Duel with the Devil') 64-bit 2018-03-15 03:34:52 / UTC 2018-03-14T17:26:07Z
    FromStats_BitRate                        : 1508999
    FromStats_Duration                       : 01:34:28.534000000
    FromStats_FrameCount                     : 531425
    FromStats_StreamSize                     : 1069227100

    Text #1
    ID                                       : 4
    Format                                   : UTF-8
    Codec ID                                 : S_TEXT/UTF8
    Codec ID/Info                            : UTF-8 Plain Text
    Title                                    : Latino-SRT
    Language                                 : Spanish
    Default                                  : No
    Forced                                   : No
    Statistics Tags Issue                    : mkvmerge v15.0.0 ('Duel with the Devil') 64-bit 2018-03-15 03:34:52 / mkvmerge v15.0.0 ('Duel with the Devil') 64-bit 2018-03-15 03:34:52 / UTC 2018-03-14T17:26:07Z
    FromStats_BitRate                        : 40
    FromStats_Duration                       : 01:27:37.093000000
    FromStats_FrameCount                     : 736
    FromStats_StreamSize                     : 26752

    Text #2
    ID                                       : 5
    Format                                   : PGS
    Muxing mode                              : zlib
    Codec ID                                 : S_HDMV/PGS
    Codec ID/Info                            : Picture based subtitle format used on BDs/HD-DVDs
    Title                                    : Latino-PGS
    Language                                 : Spanish
    Default                                  : No
    Forced                                   : No
    Statistics Tags Issue                    : mkvmerge v15.0.0 ('Duel with the Devil') 64-bit 2018-03-15 03:34:52 / mkvmerge v15.0.0 ('Duel with the Devil') 64-bit 2018-03-15 03:34:52 / UTC 2018-03-14T17:26:07Z
    FromStats_BitRate                        : 36663
    FromStats_Duration                       : 01:27:37.091000000
    FromStats_FrameCount                     : 1472
    FromStats_StreamSize                     : 24092724

    Text #3
    ID                                       : 6
    Format                                   : PGS
    Muxing mode                              : zlib
    Codec ID                                 : S_HDMV/PGS
    Codec ID/Info                            : Picture based subtitle format used on BDs/HD-DVDs
    Title                                    : Ingles-PGS
    Language                                 : English
    Default                                  : No
    Forced                                   : No
    Statistics Tags Issue                    : mkvmerge v15.0.0 ('Duel with the Devil') 64-bit 2018-03-15 03:34:52 / mkvmerge v15.0.0 ('Duel with the Devil') 64-bit 2018-03-15 03:34:52 / UTC 2018-03-14T17:26:07Z
    FromStats_BitRate                        : 23886
    FromStats_Duration                       : 01:25:04.182000000
    FromStats_FrameCount                     : 1462
    FromStats_StreamSize                     : 15240250

    Menu
    00:00:00.000                             : :Chapter 1
    00:04:03.243                             : :Chapter 2
    00:10:33.550                             : :Chapter 3
    00:16:06.716                             : :Chapter 4
    00:20:51.333                             : :Chapter 5
    00:28:53.815                             : :Chapter 6
    00:35:15.905                             : :Chapter 7
    00:42:06.816                             : :Chapter 8
    00:48:02.630                             : :Chapter 9
    00:56:37.936                             : :Chapter 10
    01:04:20.440                             : :Chapter 11
    01:09:24.619                             : :Chapter 12
    01:13:56.265                             : :Chapter 13
    01:20:41.628                             : :Chapter 14
    01:30:13.408                             : :Chapter 15

  • Peso: 6.89 GiB

Sinopsis

Berlín, 1942. Bruno tiene ocho años y desconoce el significado de la Solución Final y del Holocausto. No es consciente de las pavorosas crueldades que su país, en plena guerra mundial, está infligiendo a los pueblos de Europa. Todo lo que sabe es que su padre -recién nombrado comandante de un campo de concentración- ha ascendido en el escalafón, y que ha pasado de vivir en una confortable casa de Berlín a una zona aislada. Todo cambia cuando conoce a Shamuel, un niño judío que vive una extraña existencia paralela al otro lado de la alambrada.

Ficha técnica

Video trailer de la película

Enlaces de descarga

Rip de Bluray

Descargar El niño con el pijama de rayas (2008) Full 1080p Latino




Aportes de DPeliculasHDmega la pass es:dpeliculashdmega.org Aportes de CinemaniaHD la pass es:cinemaniahdd.com
Guardado en : Drama , FULL 1080p Plateadas , Guerra

Películas relacionadas

  • Tully (2018) 1080p Latino

    2018
    Tully (2018) 1080p Latino

    0.0 1 h 35 min 2018

    La historia de una mujer con tres hijos que, incapaz de lidiar con su bebé recién nacido, contrata...

    Director: Jason Reitman

    Género: Comedia

    Actores: Stormy Ent

  • Si solo pudiera imaginar (2018) Full 1080p Latino

    2018
    Si solo pudiera imaginar (2018) Full 1080p Latino

    4.8 1 h 50 min 2018

    La historia real de la aclamada canción "I Can Only Imagine", la canción cristiana contemporánea más...

    Director: Jon Erwin

    Género: Drama

    Actores: Trace Adkins

  • El Justiciero (2014) Full 1080p Latino

    2014
    El Justiciero (2014) Full 1080p Latino

    4.3 2 h 12 min 2014

    Robert McCall, un antiguo agente de la CIA que lleva ahora una vida tranquila, abandona su retiro para...

    Director: Deirdre Horgan

    Género: Acción

    Actores: Yan Dron

Comentarios 1
  • iDeztrukxion - 15 marzo, 2018

    gracias por subirla, una de las mejores películas de judíos!